Главная » ТрекерВидео (кино, ТВ)Художественное кинофильмы (Blu-Ray/BDRip/HD)BDRip
Версия для печати
Бессовестная реклама: на этой странице пока нет =)

Захват / Carjacked(2011)BDRip

В даном разделе все BDRip (720, 1080)
Правила форума

Сообщение

Захват / Carjacked(2011)BDRip

Сообщение Yoshkinkot » 30 мар 2012, 18:26

Страна: США
Жанр: триллер
Год выпуска: 2011
Продолжительность: 01:29:26
Перевод: Профессиональный многоголосый НТВ+
Cубтитры: английские
Режиссер: Джон Бонито / John Bonito
В ролях: Мария Белло, Стивен Дорфф, Джоанна Кэссиди, Кристен Кер, р Катрин Дент, Тим Гриффин, Молли МакКуин, Гэри Граббс, Дэвид Дженсен, Анджелл Брукс
Описание: Молодую женщину с ребёнком в её же собственной машине берёт в заложницы грабитель банка.

Качество видео: BDRip-AVC(Исх. Carjacked.2011.BluRay.1080p.AVC.TrueHD5.1-CHDBits)
Формат видео: MKV
Видео:1120x476 (2.35:1), 23.976 fps, AVC, ~1719 Kbps, 0.134 bits/pixel
Audio #1: , 48.0 KHz, AC3, 2 ch, 224 Kbps - MVO-NTV+
Audio #2: , 48.0 KHz, AC3, 6 ch, 384 Kbps - ENG
Subtitles: , UTF-8 - ENG
General
Unique ID : 184438955747689944077001875214176554638 (0x8AC1A6996D1EEEB080A9C3EDA2F30E8E)
Complete name : E:\Downloads\Zahvat.chopper887.mkv
Format : Matroska
Format version : Version 2
File size : 1.44 GiB
Duration : 1h 29mn
Overall bit rate : 2 303 Kbps
Movie name : Zahvat.chopper887
Encoded date : UTC 2012-03-30 17:36:25
Writing application : mkvmerge v4.8.0 ('I Got The...') сборка от May 24 2011 03:12:58
Writing library : libebml v1.2.0 + libmatroska v1.1.0
Video
ID : 1
Format : AVC
Format/Info : Advanced Video Codec
Format profile : High@L4.0
Format settings, CABAC : Yes
Format settings, ReFrames : 10 frames
Codec ID : V_MPEG4/ISO/AVC
Duration : 1h 29mn
Bit rate : 1 719 Kbps
Width : 1 120 pixels
Height : 476 pixels
Display aspect ratio : 2.35:1
Frame rate : 23.976 fps
Color space : YUV
Chroma subsampling : 4:2:0
Bit depth : 8 bits
Scan type : Progressive
Bits/(Pixel*Frame) : 0.134
Stream size : 1.03 GiB (72%)
Title : Zahvat.chopper887
Writing library : x264 core 120 r2164 da19765
Encoding settings : cabac=1 / ref=10 / deblock=1:-2:-1 / analyse=0x3:0x133 / me=umh / subme=11 / psy=1 / psy_rd=0.95:0.05 / mixed_ref=1 / me_range=32 / chroma_me=1 / trellis=2 / 8x8dct=1 / cqm=0 / deadzone=21,11 / fast_pskip=0 / chroma_qp_offset=-3 / threads=12 / sliced_threads=0 / nr=0 / decimate=1 / interlaced=0 / bluray_compat=0 / constrained_intra=0 / bframes=8 / b_pyramid=2 / b_adapt=2 / b_bias=0 / direct=3 / weightb=1 / open_gop=0 / weightp=2 / keyint=240 / keyint_min=23 / scenecut=40 / intra_refresh=0 / rc_lookahead=80 / rc=2pass / mbtree=1 / bitrate=1719 / ratetol=1.0 / qcomp=0.60 / qpmin=10 / qpmax=51 / qpstep=4 / cplxblur=20.0 / qblur=0.5 / ip_ratio=1.40 / aq=1:1.00
Language : English
Default : Yes
Forced : No
Audio #1
ID : 2
Format : AC-3
Format/Info : Audio Coding 3
Mode extension : CM (complete main)
Codec ID : A_AC3
Duration : 1h 29mn
Bit rate mode : Constant
Bit rate : 224 Kbps
Channel(s) : 2 channels
Channel positions : Front: L R
Sampling rate : 48.0 KHz
Bit depth : 16 bits
Compression mode : Lossy
Stream size : 143 MiB (10%)
Title : MVO-NTV+
Default : Yes
Forced : No
Audio #2
ID : 3
Format : AC-3
Format/Info : Audio Coding 3
Mode extension : CM (complete main)
Codec ID : A_AC3
Duration : 1h 29mn
Bit rate mode : Constant
Bit rate : 384 Kbps
Channel(s) : 6 channels
Channel positions : Front: L C R, Side: L R, LFE
Sampling rate : 48.0 KHz
Bit depth : 16 bits
Compression mode : Lossy
Stream size : 246 MiB (17%)
Title : ENG
Default : No
Forced : No
Text
ID : 4
Format : UTF-8
Codec ID : S_TEXT/UTF8
Codec ID/Info : UTF-8 Plain Text
Title : ENG
Default : Yes
Forced : No
[Для просмотра изображения необходимо включить JavaScript][Для просмотра изображения необходимо включить JavaScript][Для просмотра изображения необходимо включить JavaScript]

Постеры

Автор

Yoshkinkot
 


Торрент

Автор: Yoshkinkot
Добавлен: 30 мар 2012, 18:26
Размер: 1.44 ГБ
Размер: 1 545 075 611 байт
Сидеров: 2
Личеров: 2
Скачали: 0
Здоровье: 100%
Статус: Проверен
Изменил: T E K (30 мар 2012, 19:27)
Скорость скачивания: 0 байт/сек
Скорость раздачи: 0 байт/сек
Последний сидер: 7 месяцев 3 дня 16 часов 3 минуты 40 секунд назад
Последний личер: 7 месяцев 3 дня 16 часов 3 минуты 40 секунд назад
Приватный: Нет (DHT включён)
BDRip Скачать торрент
Скачать торрент
[ Размер 14.92 КБ / Просмотров 1 ]


Вернуться в BDRip

Кто сейчас на конференции

Сейчас этот форум просматривают: Yandex [Bot] и гости: 1

Привет!

Привет, меня зовут Няша, я что-то типа ангела хранителя RipFunClub'а. Так как админ меня не дописал, я еще глупенькая, и ни чего не умею и между прочим мне за это очень стыдно =( К тому же мой вид меня смущает ='(

А пока я могу только предложить зарегистрироваться или залогинеться =)