Главная » ТрекерВидео (кино, ТВ)Художественное кинофильмы (Blu-Ray/BDRip/HD)BDRip
Версия для печати
Бессовестная реклама: на этой странице пока нет =)

Воздушная тюрьма / Con Air (1997) BDRip 720p

В даном разделе все BDRip (720, 1080)
Правила форума

Сообщение

Воздушная тюрьма / Con Air (1997) BDRip 720p

Сообщение maxwell » 16 апр 2012, 15:36

Перевод: Профессиональный (полное дублирование)
Субтитры: отсутствуют
Формат: BDRip, MKV, H.264, AC3
Страна: США
Режиссер: Саймон Уэст
Жанр: боевик, триллер, криминал, приключения
Продолжительность: 01:55:24
Год выпуска: 1997
[Для просмотра изображения необходимо включить JavaScript]
В ролях: Николас Кейдж, Джон Кьюсак, Джон Малкович, Винг Рэймс, Ник Чинланд, Стив Бушеми, Колм Мини, Рейчел Тикотин, Дэйв Шапелл, Майкелти Уильямсон

Описание: «Воздушная тюрьма» — транспортное подразделение полиции США, перевозящее особо опасных преступников. Одним из этих рейсов возвращается домой Кэмерон По, освобожденный из тюрьмы после 8 лет заключения. Он так долго ждал этого и ничто не должно остановить его на пути домой.
Внезапно Кэмерон оказывается свидетелем захвата самолета, организованного опаснейшим рецидивистом Сайрусом «Вирусом» Гриссомом. Он решает взять ситуацию в свои руки и помочь полиции, ведь для него это единственный шанс попасть домой. Только один человек на земле готов поверить ему — шериф Винс Ларкин, который вынужден преодолевать невероятные трудности, чтобы предотвратить бегство преступников и не позволить своим ретивым начальникам взорвать самолет вместе со всеми пассажирами.


Рейтинг на КиноПоиске: 7.612
Рейтинг на IMDB: 6.6/10
Рейтинг на MPAA: R

Видео: 1280x544p (2.35:1), 23.976 fps, AVC MPEG4 (x264), High@L4.1, ~4002 kbps avg, 0.240 bit/pixel
Аудио #1: русский 48 kHz, AC3, 6 ch, ~448 kbps avg [Профессиональный (полное дублирование)]
Аудио #2: русский 48 kHz, AC3, 6 ch, ~448 kbps avg [Профессиональный (многоголосый закадровый) (ОРТ)] (Внешний файл)
Аудио #3: русский 48 kHz, AC3, 6 ch, ~448 kbps avg [Профессиональный (двухголосый) ([Пётр Иващенко (Гланц) и Инна Королёва)] (Внешний файл)
Аудио #4: русский 48 kHz, AC3, 6 ch, ~448 kbps avg [Авторский одноголосый (Андрей Гаврилов)] (Внешний файл)
Аудио #5: русский 48 kHz, AC3, 6 ch, ~448 kbps avg [Авторский одноголосый (Юрий Живов)] (Внешний файл)
Аудио #6: английский 48 kHz, AC3, 6 ch, ~384 kbps avg [Оригинал] (Внешний файл)

Слоган: «Они были смертельно опасны на земле. Теперь у них появились крылья.»

Награды | Из отзывов…


Общее
Уникальный идентификатор: 237687282765098009619856331563120542566 (0xB2D0E7D0AA62781B9E407C09022D4366)
Полное имя: T:\Video\Vozdushnaja_tjurma.1997.BDRip.720p\Vozdushnaja_tjurma.1997.BDRip.720p.mkv
Формат: Matroska
Размер файла: 3,59 Гбайт
Продолжительность: 1 ч. 55 м.
Общий поток: 4451 Кбит/сек
Дата кодирования: UTC 2011-03-19 11:50:37
Программа кодирования: mkvmerge v2.1.0 ('Another Place To Fall') built on Aug 19 2007 13:40:07
Библиотека кодирования: libebml v0.7.7 + libmatroska v0.8.1

Видео
Идентификатор: 1
Формат: AVC
Формат/Информация: Advanced Video Codec
Профиль формата: High@L4.1
Параметр CABAC формата: Да
Параметр ReFrames формата: 5 кадры
Идентификатор кодека: V_MPEG4/ISO/AVC
Продолжительность: 1 ч. 55 м.
Битрейт: 4002 Кбит/сек
Ширина: 1280 пикс.
Высота: 544 пикс.
Соотношение сторон: 2,35:1
Частота кадров: 23,976 кадр/сек
Цветовое пространство: YUV
Подвыборка цветности: 4:2:0
Битовая глубина: 8 бит
Тип развёртки: Прогрессивная
Бит/(Пиксели*Кадры): 0.240
Размер потока: 3,16 Гбайт (88%)
Заголовок: 1997.BDRip.720p
Библиотека кодирования: x264 core 114 r1913 5fd3dce
Настройки программы: cabac=1 / ref=5 / deblock=1:-3:-3 / analyse=0x3:0x113 / me=umh / subme=8 / psy=1 / psy_rd=1.00:0.15 / mixed_ref=1 / me_range=32 / chroma_me=1 / trellis=2 / 8x8dct=1 / cqm=0 / deadzone=21,11 / fast_pskip=1 / chroma_qp_offset=-3 / threads=3 / sliced_threads=0 / nr=0 / decimate=1 / interlaced=0 / constrained_intra=0 / bframes=3 / b_pyramid=2 / b_adapt=2 / b_bias=0 / direct=3 / weightb=1 / open_gop=0 / weightp=2 / keyint=250 / keyint_min=23 / scenecut=40 / intra_refresh=0 / rc_lookahead=40 / rc=2pass / mbtree=1 / bitrate=4002 / ratetol=1.0 / qcomp=0.70 / qpmin=0 / qpmax=69 / qpstep=4 / cplxblur=20.0 / qblur=0.5 / ip_ratio=1.40 / aq=1:1.00
Язык: English

Аудио
Идентификатор: 2
Формат: AC-3
Формат/Информация: Audio Coding 3
Расширение режима: CM (complete main)
Идентификатор кодека: A_AC3
Продолжительность: 1 ч. 55 м.
Вид битрейта: Постоянный
Битрейт: 448 Кбит/сек
Канал(ы): 6 канала(ов)
Расположение каналов: Front: L C R, Side: L R, LFE
Частота: 48,0 КГц
Битовая глубина: 16 бит
Метод сжатия: С потерями
Размер потока: 370 Мбайт (10%)
Заголовок: DUB
Язык: Russian
[Для просмотра изображения необходимо включить JavaScript]

[Для просмотра изображения необходимо включить JavaScript]

[Для просмотра изображения необходимо включить JavaScript]

[Для просмотра изображения необходимо включить JavaScript]

[Для просмотра изображения необходимо включить JavaScript]

[Для просмотра изображения необходимо включить JavaScript]

[Для просмотра изображения необходимо включить JavaScript]

[Для просмотра изображения необходимо включить JavaScript]

Постеры

Скриншоты

Автор

Аватара пользователя
maxwell
Младший админ
Младший админ
 
Раздал: 169.01 ГБ
Скачал: 134.6 ГБ
Ратио: 1.256
Сообщения: 437
Зарегистрирован: 20 фев 2012, 16:27
Репутация: 26


Торрент

Автор: maxwell
Добавлен: 16 апр 2012, 15:36
Размер: 5.34 ГБ
Размер: 5 735 260 464 байт
Сидеров: 1
Личеров: 5
Скачали: 0
Здоровье: 20%
Статус: Проверен
Изменил: maxwell (16 апр 2012, 15:39)
Скорость скачивания: 0 байт/сек
Скорость раздачи: 0 байт/сек
Последний сидер: 7 месяцев 10 дней 12 часов 27 минут 43 секунды назад
Последний личер: 7 месяцев 10 дней 12 часов 27 минут 43 секунды назад
Приватный: Нет (DHT включён)
BDRip Скачать торрент
Скачать торрент
[ Размер 27.74 КБ / Просмотров 4 ]


Вернуться в BDRip

Кто сейчас на конференции

Сейчас этот форум просматривают: нет зарегистрированных пользователей и гости: 1

Привет!

Привет, меня зовут Няша, я что-то типа ангела хранителя RipFunClub'а. Так как админ меня не дописал, я еще глупенькая, и ни чего не умею и между прочим мне за это очень стыдно =( К тому же мой вид меня смущает ='(

А пока я могу только предложить зарегистрироваться или залогинеться =)