Главная » ТрекерВидео (кино, ТВ)Художественное кинофильмы (Blu-Ray/BDRip/HD)BDRip
Версия для печати
Бессовестная реклама: на этой странице пока нет =)

Эффект бабочки 2 / The Butterfly Effect 2 (2006) BDRip 1080p от FREEISLAND

В даном разделе все BDRip (720, 1080)
Правила форума

Сообщение

Эффект бабочки 2 / The Butterfly Effect 2 (2006) BDRip 1080p от FREEISLAND

Сообщение maxwell » 16 апр 2012, 15:47

Информация о фильме
Название: Эффект бабочки 2
Оригинальное название: The Butterfly Effect 2
Год выхода: 2006
Жанр: фантастика, триллер, драма
Режиссер: Джон Р. Леонетти
В ролях: Эрик Лайвли, Эрика Дюранс, Дастин Миллиган, Джина Холден, Дэвид Льюис, Эндрю Эйрли, Крис Готье, Сьюзан Хоган, Дж.Р. Борн, Линдси Максвелл, Зоран Вукелич, Джерри Уассерман, Джон Манн, Вина Суд, Брэд Келли, Малколм Стюарт

О фильме:
Выжив после ужасного несчастного случая, в котором погибли его подружка Джули и двое лучших друзей — Аманда и Тревор — Ник Ларсон обнаружил, что он обладает уникальной способностью возвращаться в прошлое с помощью фотографий. Ник решает спасти друзей и любимую, но любое вмешательство в прошлое порой непредсказуемым образом сказывается на будущем…


[Для просмотра изображения необходимо включить JavaScript][Для просмотра изображения необходимо включить JavaScript]

Страна: США
Студия: BenderSpink
Продолжительность: 01:32:36
Перевод: Профессиональный (многоголосый закадровый)

Файл
Кодек: H.264
Качество: BDRip 1080p
Видео: 1920x1080 (16:9), 23.976 fps, AVC, 6 056 Kbps
Звук:
AC3, 384 Kbps, 48.0 KHz, 6 ch RUS MVO
AC3, 320 Kbps, 48.0 KHz, 6 ch ENG
Субтитры: Русские, Английские ( srt)
[Для просмотра изображения необходимо включить JavaScript]
[Для просмотра изображения необходимо включить JavaScript]
General
Complete name: The.Butterfly.Effect.2.2006.BDRip1080p-F.HD.mkv
Format: Matroska
File size: 4.37 GiB
Duration: 1h 32mn
Overall bit rate: 6 753 Kbps
Encoded date: UTC 2012-04-15 19:21:22
Writing application: mkvmerge v5.5.0 ('Healer') built on Apr6 2012 21:43:24
Writing library: libebml v1.2.3 + libmatroska v1.3.0

Video
ID: 1
Format: AVC
Format/Info: Advanced Video Codec
Format profile: High@L4.1
Format settings, CABAC: Yes
Format settings, ReFrames: 4 frames
Format settings, GOP: M=8, N=16
Muxing mode: Container profile=Unknown@4.1
Codec ID: V_MPEG4/ISO/AVC
Duration: 1h 32mn
Bit rate: 6 056 Kbps
Width: 1 920 pixels
Height: 1 080 pixels
Display aspect ratio: 16:9
Frame rate: 23.976 fps
Color space: YUV
Chroma subsampling: 4:2:0
Bit depth: 8 bits
Scan type: Progressive
Bits/(Pixel*Frame): 0.122
Stream size: 3.83 GiB (88%)
Writing library: x264 core 122 r2184 5c85e0a
Encoding settings: cabac=1 / ref=4 / deblock=1:-3:-3 / analyse=0x3:0x113 / me=umh / subme=10 / psy=1 / psy_rd=1.00:0.15 / mixed_ref=1 / me_range=48 / chroma_me=1 / trellis=2 / 8x8dct=1 / cqm=0 / deadzone=21,11 / fast_pskip=0 / chroma_qp_offset=-1 / threads=6 / sliced_threads=0 / nr=0 / decimate=1 / interlaced=0 / bluray_compat=0 / constrained_intra=0 / bframes=7 / b_pyramid=2 / b_adapt=2 / b_bias=0 / direct=3 / weightb=1 / open_gop=0 / weightp=2 / keyint=240 / keyint_min=23 / scenecut=40 / intra_refresh=0 / rc=2pass / mbtree=0 / bitrate=6056 / ratetol=1.0 / qcomp=0.70 / qpmin=0 / qpmax=69 / qpstep=4 / cplxblur=20.0 / qblur=0.5 / ip_ratio=1.40 / pb_ratio=1.30 / aq=2:0.90
Color primaries: BT.709-5, BT.1361, IEC 61966-2-4, SMPTE RP177
Transfer characteristics: BT.709-5, BT.1361
Matrix coefficients: BT.709-5, BT.1361, IEC 61966-2-4 709, SMPTE RP177

Audio #1
ID: 2
Format: AC-3
Format/Info: Audio Coding 3
Mode extension: CM (complete main)
Codec ID: A_AC3
Duration: 1h 32mn
Bit rate mode: Constant
Bit rate: 384 Kbps
Channel(s): 6 channels
Channel positions: Front: L C R, Side: L R, LFE
Sampling rate: 48.0 KHz
Bit depth: 16 bits
Stream size: 254 MiB (6%)
Language: Russian

Audio #2
ID: 3
Format: AC-3
Format/Info: Audio Coding 3
Mode extension: CM (complete main)
Codec ID: A_AC3
Duration: 1h 32mn
Bit rate mode: Constant
Bit rate: 320 Kbps
Channel(s): 6 channels
Channel positions: Front: L C R, Side: L R, LFE
Sampling rate: 48.0 KHz
Bit depth: 16 bits
Stream size: 212 MiB (5%)

Text #1
ID: 4
Format: UTF-8
Codec ID: S_TEXT/UTF8
Codec ID/Info: UTF-8 Plain Text
Language: Russian

Text #2
ID: 5
Format: UTF-8
Codec ID: S_TEXT/UTF8
Codec ID/Info: UTF-8 Plain Text


Релиз от: [Для просмотра изображения необходимо включить JavaScript]

Постеры

Скриншоты

Автор

Аватара пользователя
maxwell
Младший админ
Младший админ
 
Раздал: 169.01 ГБ
Скачал: 134.6 ГБ
Ратио: 1.256
Сообщения: 437
Зарегистрирован: 20 фев 2012, 16:27
Репутация: 26


Торрент

Автор: maxwell
Добавлен: 16 апр 2012, 15:47
Размер: 4.37 ГБ
Размер: 4 690 531 884 байт
Сидеров: 60
Личеров: 6
Скачали: 0
Здоровье: 100%
Статус: Проверен
Изменил: maxwell (16 апр 2012, 15:49)
Скорость скачивания: 0 байт/сек
Скорость раздачи: 0 байт/сек
Последний сидер: 7 месяцев 10 дней 12 часов 16 минут 4 секунды назад
Последний личер: 7 месяцев 10 дней 12 часов 16 минут 4 секунды назад
Приватный: Нет (DHT включён)
BDRip Скачать торрент
Скачать торрент
[ Размер 22.32 КБ / Просмотров 2 ]


Вернуться в BDRip

Кто сейчас на конференции

Сейчас этот форум просматривают: нет зарегистрированных пользователей и гости: 1

Привет!

Привет, меня зовут Няша, я что-то типа ангела хранителя RipFunClub'а. Так как админ меня не дописал, я еще глупенькая, и ни чего не умею и между прочим мне за это очень стыдно =( К тому же мой вид меня смущает ='(

А пока я могу только предложить зарегистрироваться или залогинеться =)