Главная » ТрекерВидео (кино, ТВ)Художественное кинофильмы (Blu-Ray/BDRip/HD)BDRip
Версия для печати
Бессовестная реклама: на этой странице пока нет =)

Эффект бабочки 3 / The Butterfly Effect 3: Revelations (2009) BDRip 1080p от FREEISLAND

В даном разделе все BDRip (720, 1080)
Правила форума

Сообщение

Эффект бабочки 3 / The Butterfly Effect 3: Revelations (2009) BDRip 1080p от FREEISLAND

Сообщение maxwell » 16 апр 2012, 15:50

Информация о фильме
Название: Эффект бабочки 3
Оригинальное название: The Butterfly Effect 3: Revelations
Год выхода: 2009
Жанр: фантастика, триллер, драма, криминал
Режиссер: Сет Гроссман
В ролях: Крис Кармак, Рэйчел Майнер, Мелисса Джонс, Кевин Йон, Линч Р. Трэвис, Хью Магвайр, Ричард Уилкинсон, Шантель Джиакалоне, Миа Серафино, Сара Хабел
[Для просмотра изображения необходимо включить JavaScript]
О фильме:
Используя свой дар, возвращаться в прошлое, Сэм помогает бороться с преступностью и спасает жизни. Но как-то раз, выручая свою первую любовь, Сэм случайно оставляет дыру во времени и высвобождает опасного серийного убийцу…


[Для просмотра изображения необходимо включить JavaScript][Для просмотра изображения необходимо включить JavaScript]

Страна: США
Студия: AfterDark Films
Продолжительность: 01:30:17
Перевод: Профессиональный (многоголосый, закадровый) с лицензии

Файл
Кодек: H.264
Качество: BDRip 1080p
Видео: 1920x1080 (16:9), 23.976 fps, AVC, 6 166 Kbps
Звук:
AC3, 384 Kbps, 48.0 KHz, 6 ch RUS MVO
AC3, 384 Kbps, 48.0 KHz, 5 ch ENG
Субтитры: Русские, Английские ( srt)
[Для просмотра изображения необходимо включить JavaScript]
General
Complete name: Butterfly Effect 3 Revelations.2009.BDrip1080p-F.HD.mkv
Format: Matroska
File size: 4.37 GiB
Duration: 1h 30mn
Overall bit rate: 6 930 Kbps
Encoded date: UTC 2012-04-16 06:19:01
Writing application: mkvmerge v5.5.0 ('Healer') built on Apr6 2012 21:43:24
Writing library: libebml v1.2.3 + libmatroska v1.3.0

Video
ID: 1
Format: AVC
Format/Info: Advanced Video Codec
Format profile: High@L4.1
Format settings, CABAC: Yes
Format settings, ReFrames: 4 frames
Muxing mode: Container profile=Unknown@4.1
Codec ID: V_MPEG4/ISO/AVC
Duration: 1h 30mn
Bit rate: 6 166 Kbps
Width: 1 920 pixels
Height: 1 080 pixels
Display aspect ratio: 16:9
Frame rate: 23.976 fps
Color space: YUV
Chroma subsampling: 4:2:0
Bit depth: 8 bits
Scan type: Progressive
Bits/(Pixel*Frame): 0.124
Stream size: 3.80 GiB (87%)
Writing library: x264 core 122 r2184 5c85e0a
Encoding settings: cabac=1 / ref=4 / deblock=1:-3:-3 / analyse=0x3:0x113 / me=umh / subme=10 / psy=1 / psy_rd=1.00:0.15 / mixed_ref=1 / me_range=32 / chroma_me=1 / trellis=2 / 8x8dct=1 / cqm=0 / deadzone=21,11 / fast_pskip=0 / chroma_qp_offset=-3 / threads=6 / sliced_threads=0 / nr=0 / decimate=1 / interlaced=0 / bluray_compat=0 / constrained_intra=0 / bframes=9 / b_pyramid=2 / b_adapt=2 / b_bias=0 / direct=3 / weightb=1 / open_gop=0 / weightp=2 / keyint=240 / keyint_min=23 / scenecut=40 / intra_refresh=0 / rc=2pass / mbtree=0 / bitrate=6166 / ratetol=1.0 / qcomp=0.70 / qpmin=0 / qpmax=69 / qpstep=4 / cplxblur=20.0 / qblur=0.5 / ip_ratio=1.40 / pb_ratio=1.30 / aq=2:0.90
Color primaries: BT.709-5, BT.1361, IEC 61966-2-4, SMPTE RP177
Transfer characteristics: BT.709-5, BT.1361
Matrix coefficients: BT.709-5, BT.1361, IEC 61966-2-4 709, SMPTE RP177

Audio #1
ID: 2
Format: AC-3
Format/Info: Audio Coding 3
Mode extension: CM (complete main)
Codec ID: A_AC3
Duration: 1h 30mn
Bit rate mode: Constant
Bit rate: 384 Kbps
Channel(s): 6 channels
Channel positions: Front: L C R, Side: L R, LFE
Sampling rate: 48.0 KHz
Bit depth: 16 bits
Stream size: 248 MiB (6%)
Language: Russian

Audio #2
ID: 3
Format: AC-3
Format/Info: Audio Coding 3
Mode extension: CM (complete main)
Codec ID: A_AC3
Duration: 1h 30mn
Bit rate mode: Constant
Bit rate: 384 Kbps
Channel(s): 5 channels
Channel positions: Front: L C R, Side: L R
Sampling rate: 48.0 KHz
Bit depth: 16 bits
Stream size: 248 MiB (6%)

Text #1
ID: 4
Format: UTF-8
Codec ID: S_TEXT/UTF8
Codec ID/Info: UTF-8 Plain Text
Language: Russian

Text #2
ID: 5
Format: UTF-8
Codec ID: S_TEXT/UTF8
Codec ID/Info: UTF-8 Plain Tex



Релиз от: [Для просмотра изображения необходимо включить JavaScript]

Постеры

Автор

Аватара пользователя
maxwell
Младший админ
Младший админ
 
Раздал: 169.01 ГБ
Скачал: 134.6 ГБ
Ратио: 1.256
Сообщения: 437
Зарегистрирован: 20 фев 2012, 16:27
Репутация: 26


Торрент

Автор: maxwell
Добавлен: 16 апр 2012, 15:50
Размер: 4.37 ГБ
Размер: 4 692 317 371 байт
Сидеров: 50
Личеров: 6
Скачали: 0
Здоровье: 100%
Раздающих: 100%
Статус: Проверен
Изменил: maxwell (16 апр 2012, 15:54)
Скорость скачивания: 0 байт/сек
Скорость раздачи: 0 байт/сек
Последний сидер: 7 месяцев 15 дней 4 часа 29 минут 58 секунд назад
Последний личер: 7 месяцев 15 дней 4 часа 29 минут 58 секунд назад
Приватный: Нет (DHT включён)
BDRip Скачать торрент
Скачать торрент
[ Размер 22.33 КБ / Просмотров 6 ]


Вернуться в BDRip

Кто сейчас на конференции

Сейчас этот форум просматривают: нет зарегистрированных пользователей и гости: 1

Привет!

Привет, меня зовут Няша, я что-то типа ангела хранителя RipFunClub'а. Так как админ меня не дописал, я еще глупенькая, и ни чего не умею и между прочим мне за это очень стыдно =( К тому же мой вид меня смущает ='(

А пока я могу только предложить зарегистрироваться или залогинеться =)