Главная » ТрекерВидео (кино, ТВ)Художественное кинофильмы (Blu-Ray/BDRip/HD)BDRip
Версия для печати
Бессовестная реклама: на этой странице пока нет =)

Ливень / Hard Rain (1998) BDRip 1080p

В даном разделе все BDRip (720, 1080)
Правила форума

Сообщение

Ливень / Hard Rain (1998) BDRip 1080p

Сообщение tmoon » 30 авг 2011, 08:39

Ливень / Hard Rain

Страна: США
Студия: Paramount Pictures
Жанр: Боевик, триллер, драма, криминал
Год выпуска: 1998
Продолжительность: 01:36:35
Перевод: Профессиональный (дублированный) Доп.инфо о переводе Лицензия
Перевод (2): Авторский (одноголосый закадровый) Доп.инфо о переводе2 А.Гаврилов
Cубтитры: русские
Формат субтитров: softsub (SRT)
Оригинальная аудиодорожка: английский


Режиссёр на русском: Микаэль Саломон


В ролях:
Морган Фриман, Кристиан Слэйтер, Рэнди Куэйд, Минни Драйвер, Эдвард Эснер, Майкл А. Гурджиан, Дэнн Флорек, Рики Харрис, Марк Ролстон, Питер Мёрник


Описание:
Вышедшая из берегов река становится причиной крупного наводнения в провинциальном американском городке. Мимо города следует инкассаторский автомобиль, перевозящий несколько миллионов долларов.Попав в засаду, неопытный охранник Том оказывается один на один с бандой «беспощадного Джима» и бушующей природной стихией. Выжить невозможно…

Сэмпл: http://multi-up.com/297770

Качество: BDRip 1080p
Контейнер: MKV
Видео: 1920х804, 23.976 fps, x264 ~10.3 Mbps
Аудио: (RUS) / Дубляж, DTS 5.1, 48 kHz, 24 bit, 1536 kbps
Аудио 2: (RUS) / Гаврилов, DTS 5.1, 48 kHz, 24 bit, 1536 kbps
Аудио 3: (ENG) / Оригинал, DTS 5.1, 48 kHz, 24 bit, 1536 kbps

Format : Matroska
File size : 9.97 GiB
Duration : 1h 36mn
Overall bit rate : 14.8 Mbps
Movie name : =kinozal.tv-HD=
Encoded date : UTC 2010-06-30 14:23:33
Writing application : mkvmerge v3.1.0 ('Happy up here') built on Jan 19 2010 12:09:24
Writing library : libebml v0.7.9 + libmatroska v0.8.1
Video
ID : 1
Format : AVC
Format/Info : Advanced Video Codec
Format profile : High@L4.1
Format settings, CABAC : Yes
Format settings, ReFrames : 5 frames
Muxing mode : Container profile=Unknown@4.1
Codec ID : V_MPEG4/ISO/AVC
Duration : 1h 36mn
Bit rate : 10.3 Mbps
Width : 1 920 pixels
Height : 804 pixels
Display aspect ratio : 2.35:1
Frame rate : 23.976 fps
Color space : YUV
Chroma subsampling : 4:2:0
Bit depth : 8 bits
Scan type : Progressive
Bits/(Pixel*Frame) : 0.277
Stream size : 6.71 GiB (67%)
Title : Hard.Rain.1998.BluRay.1080p.DTS.x264-CHD
Writing library : x264 core 88 r1471 1144615
Encoding settings : cabac=1 / ref=5 / deblock=1:-3:-3 / analyse=0x3:0x113 / me=umh / subme=9 / psy=1 / psy_rd=1.05:0.10 / mixed_ref=1 / me_range=48 / chroma_me=1 / trellis=2 / 8x8dct=1 / cqm=0 / deadzone=21,11 / fast_pskip=0 / chroma_qp_offset=-2 / threads=12 / sliced_threads=0 / nr=0 / decimate=1 / mbaff=0 / constrained_intra=0 / bframes=3 / b_pyramid=2 / b_adapt=2 / b_bias=0 / direct=3 / wpredb=1 / wpredp=2 / keyint=250 / keyint_min=25 / scenecut=40 / intra_refresh=0 / rc_lookahead=60 / rc=2pass / mbtree=1 / bitrate=10259 / ratetol=2.0 / qcomp=0.70 / qpmin=10 / qpmax=51 / qpstep=4 / cplxblur=20.0 / qblur=0.5 / vbv_maxrate=50000 / vbv_bufsize=50000 / ip_ratio=1.40 / aq=1:1.00
Language : English
Audio #1
ID : 2
Format : DTS
Format/Info : Digital Theater Systems
Codec ID : A_DTS
Duration : 1h 36mn
Bit rate mode : Constant
Bit rate : 1 510 Kbps
Channel(s) : 6 channels
Channel positions : Front: L C R, Side: L R, LFE
Sampling rate : 48.0 KHz
Bit depth : 24 bits
Stream size : 1.02 GiB (10%)
Title : DUB
Language : Russian
Audio #2
ID : 3
Format : DTS
Format/Info : Digital Theater Systems
Codec ID : A_DTS
Duration : 1h 36mn
Bit rate mode : Constant
Bit rate : 1 510 Kbps
Channel(s) : 6 channels
Channel positions : Front: L C R, Side: L R, LFE
Sampling rate : 48.0 KHz
Bit depth : 24 bits
Stream size : 1.02 GiB (10%)
Title : AVO (Gavrilov)
Language : Russian
Audio #3
ID : 4
Format : DTS
Format/Info : Digital Theater Systems
Codec ID : A_DTS
Duration : 1h 36mn
Bit rate mode : Constant
Bit rate : 1 510 Kbps
Channel(s) : 6 channels
Channel positions : Front: L C R, Side: L R, LFE
Sampling rate : 48.0 KHz
Bit depth : 24 bits
Stream size : 1.02 GiB (10%)
Language : English
Text
ID : 5
Format : UTF-8
Codec ID : S_TEXT/UTF8
Codec ID/Info : UTF-8 Plain Text
Language : Russian
КОГДА ТЫ РОДИЛСЯ! - ты плакал, а мир улыбался!!! Так проживи жизнь так, чтоб ты умирая улыбался, а мир плакал!!!

Скриншоты

Автор

Аватара пользователя
tmoon
 
Раздал: 863.96 ГБ
Скачал: 849.74 ГБ
Ратио: 1.017
Сообщения: 629
Зарегистрирован: 09 июн 2011, 13:21
Репутация: 0


Торрент

Автор: tmoon
Добавлен: 30 авг 2011, 08:39
Размер: 9.97 ГБ
Размер: 10 701 861 952 байт
Сидеров: 11
Личеров: 8
Скачали: 0
Здоровье: 100%
Статус: Проверен
Изменил: H@MER™ (30 авг 2011, 13:39)
Скорость скачивания: 0 байт/сек
Скорость раздачи: 0 байт/сек
Последний сидер: 6 месяцев 27 дней 32 минуты 20 секунд назад
Последний личер: 6 месяцев 27 дней 32 минуты 20 секунд назад
Приватный: Нет (DHT включён)
BDRip Скачать торрент
Скачать торрент
[ Размер 50.37 КБ / Просмотров 2 ]


Re: Ливень / Hard Rain (1998) BDRip 1080p

Сообщение T E K » 31 авг 2011, 16:50

фильм супер
Аватара пользователя
T E K
Администратор
Администратор
 
Раздал: 4.33 ТБ
Скачал: 3.22 ТБ
Ратио: 1.344
Сообщения: 1682
Зарегистрирован: 20 фев 2010, 08:37
Репутация: 197


Вернуться в BDRip

Кто сейчас на конференции

Сейчас этот форум просматривают: нет зарегистрированных пользователей и гости: 1

Привет!

Привет, меня зовут Няша, я что-то типа ангела хранителя RipFunClub'а. Так как админ меня не дописал, я еще глупенькая, и ни чего не умею и между прочим мне за это очень стыдно =( К тому же мой вид меня смущает ='(

А пока я могу только предложить зарегистрироваться или залогинеться =)