Главная » ТрекерВидео (кино, ТВ)Художественное кинофильмы (Blu-Ray/BDRip/HD)BDRip
Версия для печати
Бессовестная реклама: на этой странице пока нет =)

Пастырь / Priest (2011) BDRip 1080p | 3D-Video

В даном разделе все BDRip (720, 1080)
Правила форума

Сообщение

Пастырь / Priest (2011) BDRip 1080p | 3D-Video

Сообщение teaken » 23 фев 2012, 10:01

Название: Пастырь
Оригинальное название: Priest
Год выхода: 2011
Жанр: ужасы, фантастика, боевик, триллер
Режиссер: Скотт Чарльз Стюарт
В ролях: Пол Беттани, Карл Урбан, Кэм Жиганде, Мэгги Кью, Лили Коллинз, Брэд Дуриф, Стивен Мойер, Кристофер Пламмер, Алан Дэйл, Медкен Эмик и др.

О фильме:
Далекое будущее. Миром правят религия и церковь. Священник, нарушая все церковные запреты, пытается выследить банду вампиров, похитивших его племянницу. В поисках ему помогают шериф и монахиня.

[Для просмотра изображения необходимо включить JavaScript]

Страна: США, Buckaroo Entertainment
Продолжительность: 01:27:27
Перевод: Дублированное [лицензия]

Кодек: MKV
Качество: BDRip 1080 | 3D-Video
Видео: AVC / 1920х1080p / 23,976 fps / 7 989 Kbps
Аудио: Русский / AC3 / 48 KHz / 5.1 ch / 448 Kbps
Аудио: Украинский / AC3 / 48 KHz / 5.1 ch / 448 Kbps
Аудио: Английский / AC3 / 48 KHz / 5.1 ch / 640 Kbps
Cубтитры: русские, английские (.srt)
General
Unique ID : 222207280084102158582705322122020523997 (0xA72B90C1D24DCF79BDC2EB1FE15A0FDD)
Complete name : F:DownloadsPriest3D.2011.halfOU.AC3.rus-ukr-eng.Priest3D.2011.halfOU.AC3.rus-ukr-eng.mkv
Format : Matroska
File size : 5.94 GiB
Duration : 1h 27mn
Overall bit rate : 9 718 Kbps
Movie name : Priest 3D (Rip by Ash61)
Encoded date : UTC 2011-08-06 16:16:50
Writing application : mkvmerge v3.4.0 ('Rapunzel') сборка от May 15 2010 09:38:20
Writing library : libebml v0.8.0 + libmatroska v0.9.0

Video
ID : 1
Format : AVC
Format/Info : Advanced Video Codec
Format profile : High@L4.1
Format settings, CABAC : Yes
Format settings, ReFrames : 4 frames
Format settings, GOP : M=6, N=16
Codec ID : V_MPEG4/ISO/AVC
Duration : 1h 27mn
Bit rate : 7 989 Kbps
Width : 1 920 pixels
Height : 1 080 pixels
Display aspect ratio : 16:9
Frame rate : 23.976 fps
Color space : YUV
Chroma subsampling : 4:2:0
Bit depth : 8 bits
Scan type : Progressive
Bits/(Pixel*Frame) : 0.161
Stream size : 4.88 GiB (82%)
Title : Rip by Ash61
Writing library : x264 core 113 r1884 7313bb5
Encoding settings : cabac=1 / ref=4 / deblock=1:-3:-3 / analyse=0x3:0x113 / me=umh / subme=9 / psy=1 / psy_rd=1.00:0.15 / mixed_ref=1 / me_range=16 / chroma_me=1 / trellis=2 / 8x8dct=1 / cqm=0 / deadzone=21,11 / fast_pskip=1 / chroma_qp_offset=-3 / threads=3 / sliced_threads=0 / nr=0 / decimate=1 / interlaced=0 / constrained_intra=0 / bframes=6 / b_pyramid=2 / b_adapt=2 / b_bias=0 / direct=3 / weightb=1 / open_gop=0 / weightp=2 / keyint=250 / keyint_min=23 / scenecut=40 / intra_refresh=0 / rc_lookahead=60 / rc=crf / mbtree=1 / crf=18.0 / qcomp=0.70 / qpmin=1 / qpmax=51 / qpstep=4 / ip_ratio=1.40 / aq=1:1.00

Audio #1
ID : 2
Format : AC-3
Format/Info : Audio Coding 3
Mode extension : CM (complete main)
Codec ID : A_AC3
Duration : 1h 27mn
Bit rate mode : Constant
Bit rate : 448 Kbps
Channel(s) : 6 channels
Channel positions : Front: L C R, Side: L R, LFE
Sampling rate : 48.0 KHz
Bit depth : 16 bits
Compression mode : Lossy
Stream size : 280 MiB (5%)
Language : Russian

Audio #2
ID : 3
Format : AC-3
Format/Info : Audio Coding 3
Mode extension : CM (complete main)
Codec ID : A_AC3
Duration : 1h 27mn
Bit rate mode : Constant
Bit rate : 448 Kbps
Channel(s) : 6 channels
Channel positions : Front: L C R, Side: L R, LFE
Sampling rate : 48.0 KHz
Bit depth : 16 bits
Compression mode : Lossy
Stream size : 280 MiB (5%)
Language : Ukrainian

Audio #3
ID : 4
Format : AC-3
Format/Info : Audio Coding 3
Mode extension : CM (complete main)
Codec ID : A_AC3
Duration : 1h 27mn
Bit rate mode : Constant
Bit rate : 640 Kbps
Channel(s) : 6 channels
Channel positions : Front: L C R, Side: L R, LFE
Sampling rate : 48.0 KHz
Bit depth : 16 bits
Compression mode : Lossy
Stream size : 400 MiB (7%)
Language : English

Menu
00:00:00.000 : :01
00:01:46.523 : :02
00:04:24.264 : :03
00:07:26.863 : :04
00:10:25.166 : :05
00:14:39.295 : :06
00:19:21.369 : :07
00:23:01.380 : :08
00:24:47.486 : :09
00:26:54.613 : :10
00:30:03.218 : :11
00:31:27.886 : :12
00:32:56.975 : :13
00:35:12.110 : :14
00:38:23.718 : :15
00:40:53.868 : :16
00:44:55.693 : :17
00:49:30.593 : :18
00:52:10.544 : :19
00:54:58.295 : :20
00:59:39.993 : :21
01:03:44.237 : :22
01:07:13.029 : :23
01:08:53.129 : :24
01:12:17.333 : :25
01:14:22.875 : :26
01:17:24.640 : :27
[kinopoisk]http://tr.kinopoisk.ru/258759/kinopoisk.ru-Priest-51268.mov[/kinopoisk]

Постеры

Скриншоты

Автор

Аватара пользователя
teaken
Супераплоадеры
Супераплоадеры
 
Раздал: 3.19 ГБ
Скачал: 8.6 ГБ
Ратио: 0.371
Сообщения: 3064
Зарегистрирован: 20 фев 2010, 16:37
Репутация: 64


Торрент

Автор: teaken
Добавлен: 23 фев 2012, 09:57
Размер: 5.94 ГБ
Размер: 6 374 352 364 байт
Сидеров: 19
Личеров: 1
Скачали: 0
Здоровье: 100%
Статус: Проверен
Изменил: T E K (23 фев 2012, 10:02)
Скорость скачивания: 0 байт/сек
Скорость раздачи: 0 байт/сек
Последний сидер: 7 месяцев 3 дня 19 часов 50 минут 25 секунд назад
Последний личер: 7 месяцев 3 дня 19 часов 50 минут 25 секунд назад
Приватный: Нет (DHT включён)
BDRip Скачать торрент
Скачать торрент
[ Размер 30.27 КБ / Просмотров 2 ]


Вернуться в BDRip

Кто сейчас на конференции

Сейчас этот форум просматривают: нет зарегистрированных пользователей и гости: 1

Привет!

Привет, меня зовут Няша, я что-то типа ангела хранителя RipFunClub'а. Так как админ меня не дописал, я еще глупенькая, и ни чего не умею и между прочим мне за это очень стыдно =( К тому же мой вид меня смущает ='(

А пока я могу только предложить зарегистрироваться или залогинеться =)