Главная » ТрекерВидео (кино, ТВ)Художественное киноГорячие новинки
Версия для печати
Бессовестная реклама: на этой странице пока нет =)

Великолепная семёрка / The Glorious Seven [бовеик, 2019] WEB-DL 1080p, Mvo | [HDRezka Studio]

Правила форума

Сообщение

Великолепная семёрка / The Glorious Seven [бовеик, 2019] WEB-DL 1080p, Mvo | [HDRezka Studio]

Сообщение K15 » 22 май 2019, 16:39

Страна: Германия [Для просмотра изображения необходимо включить JavaScript]
Производство: Arena Filmverwertung
Год выпуска: 2019
Жанр: боевик
Продолжительность: 01:34:15
Режиссер: Харольд Франклин / Harald Franklin
В ролях: Сара Саламо, Фернандо Каррера, Нико Бирнбаум, Джерри Квартенг, Джузеппе Милаццо Андреани, Фернандо Корраль, Морис Нэш, Сантос Адриан

Описание: Дэвид Гуерра — бывший командир отряда спецназа, нанятый бесчестным миллионером для поисков его жены, которая была похищена лидером партизанской группировки. Понимая, что в одиночку ему не справиться с многочисленным и хорошо вооруженным отрядом противника, Гуерра набирает команду из шестерых бывших товарищей по военной службе. Несмотря на призрачные шансы на успех, великолепная семёрка экс-спецназовцев начинает безнадежную миссию, искренне надеясь совершить невероятный подвиг и каким-то образом остаться в живых..

[Для просмотра изображения необходимо включить JavaScript] [Для просмотра изображения необходимо включить JavaScript]

Перевод: Профессиональный (многоголосый, закадровый) | HDRezka Studio
Субтитры: английские

Качество: WEB-DL 1080p
Формат: MKV
Видео кодек: AVC
Аудио кодек: АС3
Видео: 1920x796 (2.40:1), 23.976 fps, MPEG-4 AVC ~4 570 kbps avg
Аудио №1: 48.0 kHz, AC3 Dolby Digital, 2/0 (L,R) ch, ~192 kbps | RUS / HDRezka Studio
Аудио №2: 48.0 kHz, AC3 Dolby Digital, 3/2 (L,C,R,l,r) + LFE ch, ~384 kbps | ENG
Формат субтитров: UTF-8 Plain Text
Дата премьеры (мир): 12 марта 2019

[Для просмотра изображения необходимо включить JavaScript]

General
Unique ID : 149954649511463047005895400754206691129 (0x70D03708E432934CF80C2CDD996F4F39)
Complete name : The.Glorious.Seven.2019.WEB-DL.1080p.mkv
Format : Matroska
Format version : Version 4 / Version 2
File size : 3.39 GiB
Duration : 1 h 34 min
Overall bit rate : 5 148 kb/s
Encoded date : UTC 2019-05-20 17:34:18
Writing application : mkvmerge v20.0.0 ('I Am The Sun') 64-bit
Writing library : libebml v1.3.5 + libmatroska v1.4.8

Video
ID : 1
Format : AVC
Format/Info : Advanced Video Codec
Format profile : High@L4
Format settings : CABAC / 5 Ref Frames
Format settings, CABAC : Yes
Format settings, RefFrames : 5 frames
Codec ID : V_MPEG4/ISO/AVC
Duration : 1 h 34 min
Bit rate : 4 570 kb/s
Width : 1 920 pixels
Height : 796 pixels
Display aspect ratio : 2.40:1
Frame rate mode : Constant
Frame rate : 23.976 FPS
Color space : YUV
Chroma subsampling : 4:2:0
Bit depth : 8 bits
Scan type : Progressive
Bits/(Pixel*Frame) : 0.125
Stream size : 3.01 GiB (89%)
Language : English
Default : Yes
Forced : No
Color range : Limited
Color primaries : BT.709
Transfer characteristics : BT.709
Matrix coefficients : BT.709

Audio #1
ID : 2
Format : AC-3
Format/Info : Audio Coding 3
Codec ID : A_AC3
Duration : 1 h 34 min
Bit rate mode : Constant
Bit rate : 192 kb/s
Channel(s) : 2 channels
Channel positions : Front: L R
Sampling rate : 48.0 kHz
Frame rate : 31.250 FPS (1536 SPF)
Bit depth : 16 bits
Compression mode : Lossy
Stream size : 129 MiB (4%)
Title : MVO HDRezka Studio
Language : Russian
Service kind : Complete Main
Default : Yes
Forced : No

Audio #2
ID : 3
Format : AC-3
Format/Info : Audio Coding 3
Codec ID : A_AC3
Duration : 1 h 34 min
Bit rate mode : Constant
Bit rate : 384 kb/s
Channel(s) : 6 channels
Channel positions : Front: L C R, Side: L R, LFE
Sampling rate : 48.0 kHz
Frame rate : 31.250 FPS (1536 SPF)
Bit depth : 16 bits
Compression mode : Lossy
Stream size : 259 MiB (7%)
Language : English
Service kind : Complete Main
Default : No
Forced : No

Text
ID : 4
Format : UTF-8
Codec ID : S_TEXT/UTF8
Codec ID/Info : UTF-8 Plain Text
Duration : 1 h 29 min
Bit rate : 38 b/s
Count of elements : 900
Stream size : 25.2 KiB (0%)
Language : English
Default : No
Forced : No

Menu
00:00:00.000 : en:1
00:14:41.631 : en:2
00:25:55.304 : en:3
00:37:33.168 : en:4
00:49:12.950 : en:5
01:06:02.667 : en:6
01:16:21.451 : en:7
01:29:20.354 : en:8

Постеры

Автор

K15
Администратор
Администратор
 
Раздал: 1.16 ГБ
Скачал: 0 байт
Ратио: Seed.
Сообщения: 61
Зарегистрирован: 24 сен 2012, 21:49
Репутация: 0


Торрент

Автор: K15
Добавлен: 22 май 2019, 16:39
Размер: 3.39 ГБ
Размер: 3 639 085 523 байт
Сидеров: 2
Личеров: 0
Скачали: 0
Здоровье: 100%
Раздающих: 100%
Статус: Проверен
Изменил: K15 (22 май 2019, 16:40)
Скорость скачивания: 0 байт/сек
Скорость раздачи: 0 байт/сек
Последний сидер: 14 часов 8 минут 39 секунд назад
Последний личер: 1 месяц 19 дней 19 часов 48 минут 19 секунд назад
Приватный: Нет (DHT включён)
Горячие новинки Скачать торрент
Скачать торрент
[ Размер 18.54 КБ / Просмотров 41 ]


Вернуться в Горячие новинки

Кто сейчас на конференции

Сейчас этот форум просматривают: нет зарегистрированных пользователей и гости: 1

Привет!

Привет, меня зовут Няша, я что-то типа ангела хранителя RipFunClub'а. Так как админ меня не дописал, я еще глупенькая, и ни чего не умею и между прочим мне за это очень стыдно =( К тому же мой вид меня смущает ='(

А пока я могу только предложить зарегистрироваться или залогинеться =)