Главная » ТрекерВидео (кино, ТВ)Художественное киноЗарубежное Кино(Rips)Ужасы
Версия для печати
Бессовестная реклама: на этой странице пока нет =)

Отголоски войны / Soldier of War / Aux [Ужасы, боевик, триллер, 2018] WEB-DL 1080p, Mvo | [HDRezka Studio]

Правила форума

Сообщение

Отголоски войны / Soldier of War / Aux [Ужасы, боевик, триллер, 2018] WEB-DL 1080p, Mvo | [HDRezka Studio]

Сообщение K15 » 12 апр 2019, 12:53

Информация о фильме
Название: Отголоски войны
Оригинальное название: Soldier of War / Aux
Год выпуска: 2018
Жанр: Ужасы, боевик, триллер
Режиссер: Джон Адамс
В ролях: Джон Рис-Дэвис, Рози Феллнер, Таня Фрэнкс, Тео Девани, Пол Рейнольдс, Джек Дерджс, Салли Мортемор, Гари Маверс, Тристам Саммерс, Крис Уилсон

О фильме: Действие разворачивается в Великобритании. Два подростка, играя на опушке леса, случайно находят старый подземный бункер, открытие которого приводит к появлению Боба Пирса — призрака британского солдата времен Второй мировой войны. Считая, что нацисты вторглись в Англию, он начинает убивать всех людей, которые попадаются на его пути. Количество смертей растет ежедневно, а остановить призрака не представляется возможным, поэтому полиция неохотно соглашается доверить это дело Джеку — ветерану войны, который утверждает, что способен прекратить бойню.

[Для просмотра изображения необходимо включить JavaScript] [Для просмотра изображения необходимо включить JavaScript]

Выпущено: Великобритания, Evolutionary Films
Продолжительность: 01:21:27
Перевод: Профессиональный (многоголосый, закадровый) | HDRezka Studio

Файл
Качество: WEB-DL 1080p
Контейнер: MKV
Видео: MPEG-4 AVC, 8228 Кбит/с, 1920x800
Аудио 1: Русский: AC3, 2 ch, 192 Кбит/с - HDRezka Studio
Аудио 2: Английский: Е-AC3, 6 ch, 640 Кбит/с - Original
Субтитры: Английские

General
Unique ID : 158057355401287175264559053722924753911 (0x76E8BD4756D452AE9EAC56AD9ACA23F7)
Complete name : G:Soldier.of.War.AKA.Aux.2018.WEB-DL.1080p.mkv
Format : Matroska
Format version : Version 4 / Version 2
File size : 5.16 GiB
Duration : 1 h 21 min
Overall bit rate : 9 062 kb/s
Encoded date : UTC 2019-04-12 03:04:59
Writing application : mkvmerge v20.0.0 ('I Am The Sun') 64-bit
Writing library : libebml v1.3.5 + libmatroska v1.4.8

Video
ID : 1
Format : AVC
Format/Info : Advanced Video Codec
Format profile : High@L4
Format settings : CABAC / 4 Ref Frames
Format settings, CABAC : Yes
Format settings, RefFrames : 4 frames
Codec ID : V_MPEG4/ISO/AVC
Duration : 1 h 21 min
Bit rate mode : Constant
Bit rate : 8 228 kb/s
Nominal bit rate : 10 000 kb/s
Width : 1 920 pixels
Height : 800 pixels
Display aspect ratio : 2.40:1
Frame rate mode : Constant
Frame rate : 23.976 (24000/1001) FPS
Color space : YUV
Chroma subsampling : 4:2:0
Bit depth : 8 bits
Scan type : Progressive
Bits/(Pixel*Frame) : 0.223
Stream size : 4.68 GiB (91%)
Language : English
Default : Yes
Forced : No
Color range : Limited
Color primaries : BT.709
Transfer characteristics : BT.709
Matrix coefficients : BT.709

Audio #1
ID : 2
Format : AC-3
Format/Info : Audio Coding 3
Codec ID : A_AC3
Duration : 1 h 21 min
Bit rate mode : Constant
Bit rate : 192 kb/s
Channel(s) : 2 channels
Channel positions : Front: L R
Sampling rate : 48.0 kHz
Frame rate : 31.250 FPS (1536 SPF)
Bit depth : 16 bits
Compression mode : Lossy
Stream size : 112 MiB (2%)
Title : MVO HDRezka
Language : Russian
Service kind : Complete Main
Default : Yes
Forced : No

Audio #2
ID : 3
Format : E-AC-3
Format/Info : Enhanced Audio Coding 3
Codec ID : A_EAC3
Duration : 1 h 21 min
Bit rate mode : Constant
Bit rate : 640 kb/s
Channel(s) : 6 channels
Channel positions : Front: L C R, Side: L R, LFE
Sampling rate : 48.0 kHz
Frame rate : 187.500 FPS (256 SPF)
Compression mode : Lossy
Stream size : 373 MiB (7%)
Language : English
Service kind : Complete Main
Default : No
Forced : No

Text
ID : 4
Format : UTF-8
Codec ID : S_TEXT/UTF8
Codec ID/Info : UTF-8 Plain Text
Duration : 1 h 17 min
Bit rate : 75 b/s
Count of elements : 1418
Stream size : 43.3 KiB (0%)
Language : English
Default : No
Forced : No

Постеры

Автор

Аватара пользователя
K15
Администратор
Администратор
 
Раздал: 1.16 ГБ
Скачал: 0 байт
Ратио: Seed.
Сообщения: 61
Зарегистрирован: 24 сен 2012, 21:49
Репутация: 0


Торрент

Автор: K15
Добавлен: 12 апр 2019, 12:53
Размер: 5.16 ГБ
Размер: 5 535 320 614 байт
Сидеров: 0
Личеров: 1
Скачали: 1
Здоровье: ???%
Статус: Проверен
Изменил: K15 (12 апр 2019, 12:53)
Скорость скачивания: 0 байт/сек
Скорость раздачи: 0 байт/сек
Последний сидер: 4 дня 16 часов 31 минуту 14 секунд назад
Последний личер: 4 дня 16 часов 38 минут 53 секунды назад
Приватный: Нет (DHT включён)
Ужасы Скачать торрент
Скачать торрент
[ Размер 27.47 КБ / Просмотров 25 ]


Вернуться в Ужасы

Кто сейчас на конференции

Сейчас этот форум просматривают: нет зарегистрированных пользователей и гости: 1

Привет!

Привет, меня зовут Няша, я что-то типа ангела хранителя RipFunClub'а. Так как админ меня не дописал, я еще глупенькая, и ни чего не умею и между прочим мне за это очень стыдно =( К тому же мой вид меня смущает ='(

А пока я могу только предложить зарегистрироваться или залогинеться =)