Главная » ТрекерВидео (кино, ТВ)Художественное киноНаше кино(Rips)Комедия
Версия для печати
Бессовестная реклама: на этой странице пока нет =)

Свидание [2012] DVDRip

Правила форума

Сообщение

Свидание [2012] DVDRip

Сообщение Yoshkinkot » 19 май 2012, 08:54

Год выпуска: 2012
Выпущено: Россия
Жанр: комедия
Продолжительность: 01:23:31
Озвучивание: Оригинальное [Лицензия]
Cубтитры: Отсутствуют
Режиссёр: Юсуп Бахшиев
В ролях: Владимир Кристовский, Екатерина Климова, Сергей Бадюк, Алёна Бабенко, Константин Мурзенко, Андрей Кайков, Григорий Сиятвинда, Нелли Неведина, Ольга Карпович, Геннадий Венгеров
Описание: Молодой, неженатый, преуспевающий хирург Дмитрий Горин по совету сестры назначает свидание ее подруге — привлекательной учительнице Ане Светловой. Прекрасное создание, попав под действие алкоголя, на деловом обеде, столь важном для Дмитрия, теряет над собой контроль, и торжественное мероприятие превращается в кошмар.
В довершение ко всему преследуемый похожим на Терминатора поклонником Ани, Дима остается без работы, любимого мотоцикла и ему грозит тюремное заключение. Начавшись столь невинно, свидание превращается в бесконечную череду комичных ситуаций, погонь и драк, что, впрочем, не помешает возникшим чувствам перерасти в настоящую любовь.

[Для просмотра изображения необходимо включить JavaScript] Сэмпл
Качество: DVDRip
Формат: AVI
Видео кодек: XviD
Аудио кодек: AC3
Видео: 720x304 (2,35:1), 25 fps, XviD MPEG-4 ~1883 kbps avg, 0.344 bit/pixel
Аудио: 48 kHz, AC3 Dolby Digital, 3/2 (L,C,R,l,r) + LFE ch, ~448 kbps
Mediainfo
Общее
Полное имя : D:\фильмы\сериалы\Svidanie.2012.O.DVDRip.avi
Формат : AVI
Формат/Информация : Audio Video Interleave
Размер файла : 1,37 Гбайт
Продолжительность : 1 ч. 23 м.
Общий поток : 2341 Кбит/сек
Название фильма : Svidanie.2012.O.DVDRip
Режиссёр : ELEKTRO-Am
Жанр : Comedy
Программа кодирования : VirtualDubMod 1.5.10.2 (build 2540/release)
Формат оригинала/Имя : Movie
Правообладатель : ELEKTRI4KA
Видео
Идентификатор : 0
Формат : MPEG-4 Visual
Профиль формата : Advanced Simple@L5
Параметр BVOP формата : 2
Параметр QPel формата : Нет
Параметр GMC формата : Без точки перехода
Параметр матрицы формата : Выборочная
Идентификатор кодека : XVID
Идентификатор кодека/Подсказка : XviD
Продолжительность : 1 ч. 23 м.
Битрейт : 1883 Кбит/сек
Ширина : 720 пикселей
Высота : 304 пикселя
Соотношение сторон : 2,35:1
Частота кадров : 25,000 кадров/сек
Цветовое пространство : YUV
Субдискретизация насыщенности : 4:2:0
Битовая глубина : 8 бит
Тип развёртки : Прогрессивная
Метод сжатия : С потерями
Бит/(Пиксели*Кадры) : 0.344
Размер потока : 1,10 Гбайт (80%)
Библиотека кодирования : XviD 1.2.0.dev47 (UTC 2006-11-01)
Аудио
Идентификатор : 1
Формат : AC-3
Формат/Информация : Audio Coding 3
Расширение режима : CM (complete main)
Идентификатор кодека : 2000
Продолжительность : 1 ч. 23 м.
Вид битрейта : Постоянный
Битрейт : 448 Кбит/сек
Каналы : 6 каналов
Расположение каналов : Front: L C R, Side: L R, LFE
Частота : 48,0 КГц
Битовая глубина : 16 бит
Метод сжатия : С потерями
Размер потока : 268 Мбайт (19%)
Выравнивание : Разделение по промежуткам
Продолжительность промежутка : 40 мс. (1,00 видеокадр)
Время предзагрузки промежутка : 500 мс.

Постеры

Скриншоты

Автор

Yoshkinkot
 


Торрент

Автор: Yoshkinkot
Добавлен: 19 май 2012, 08:54
Размер: 1.37 ГБ
Размер: 1 466 308 608 байт
Сидеров: 1044
Личеров: 436
Скачали: 3
Здоровье: 100%
Статус: Проверен
Изменил: fReeSouL (19 май 2012, 14:05)
Скорость скачивания: 0 байт/сек
Скорость раздачи: 0 байт/сек
Последний сидер: 1 год 3 месяца 27 дней 8 часов 20 минут 16 секунд назад
Последний личер: 1 год 3 месяца 27 дней 8 часов 20 минут 16 секунд назад
Приватный: Нет (DHT включён)
Комедия Скачать торрент
Скачать торрент
[ Размер 14.2 КБ / Просмотров 10 ]


Вернуться в Комедия

Кто сейчас на конференции

Сейчас этот форум просматривают: нет зарегистрированных пользователей и гости: 1

Привет!

Привет, меня зовут Няша, я что-то типа ангела хранителя RipFunClub'а. Так как админ меня не дописал, я еще глупенькая, и ни чего не умею и между прочим мне за это очень стыдно =( К тому же мой вид меня смущает ='(

А пока я могу только предложить зарегистрироваться или залогинеться =)