Главная » ТрекерВидео (кино, ТВ)МультфильмыПолнометражные мультики
Версия для печати
Бессовестная реклама: на этой странице пока нет =)

Как приручить дракона 3 / How to Train Your Dragon: The Hidden World (2019) WEB-DLRip | HDRezka Studio

Правила форума

Сообщение

Как приручить дракона 3 / How to Train Your Dragon: The Hidden World (2019) WEB-DLRip | HDRezka Studio

Сообщение K15 » 06 апр 2019, 14:43

Информация о фильме
Название: Как приручить дракона 3
Оригинальное название: How to Train Your Dragon: The Hidden World
Год выхода: 2019
Жанр: Мультфильм, фэнтези, боевик, комедия, приключения, семейный, полнометражный
Режиссер: Дин ДеБлуа
В ролях: Кейт Бланшетт, Джерард Батлер, Джона Хилл, Кит Харингтон, Кристен Уиг, Джей Барушель, Кристофер Минц-Плассе, Америка Феррера, Оулавюр Дарри Оулафссон, Ф. Мюррэй Абрахам, Крэйг Фергюсон, Джастин Руппл

О фильме: Когда-то викинги жили в гармонии с драконами. В те времена они делили радость, горе… и последние штаны. Казалось, что так будет всегда, но появление загадочной Дневной Фурии изменило жизнь острова. И теперь Иккинг и Беззубик столкнутся с безжалостным охотником на драконов, жаждущим уничтожить все, что им дорого.

[Для просмотра изображения необходимо включить JavaScript] [Для просмотра изображения необходимо включить JavaScript][Для просмотра изображения необходимо включить JavaScript]

Страна: США
Студия: DreamWorks Animation, Mad Hatter Entertainment
Продолжительность: 01:44:26
Перевод: Профессиональный (многоголосый, закадровый) | HDRezka Studio
Субтитры: Нет

Файл
Кодек: XviD
Качество: WEB-DLRip
Видео: 688x288 (2.39:1), 23.976 fps, XviD build 73 ~861 kbps avg, 0.18 bit/pixel
Звук: 48 kHz, MPEG Layer 3, 2 ch, ~128.00 kbps avg

General
Complete name : How.to.Train.Your.Dragon.The.Hidden.World.2019.WEB-DLRip.Portablius.avi
Format : AVI
Format/Info : Audio Video Interleave
File size : 746 MiB
Duration : 1 h 44 min
Overall bit rate : 999 kb/s
Writing application : VirtualDubMod 1.5.10.3 | http://www.virtualdub-fr.org || (build 2550/release)
Writing library : VirtualDubMod build 2550/release

Video
ID : 0
Format : MPEG-4 Visual
Format profile : Advanced Simple@L5
Format settings : BVOP1 / Custom Matrix
Format settings, BVOP : 1
Format settings, QPel : No
Format settings, GMC : No warppoints
Format settings, Matrix : Custom
Codec ID : XVID
Codec ID/Hint : XviD
Duration : 1 h 44 min
Bit rate : 862 kb/s
Width : 688 pixels
Height : 288 pixels
Display aspect ratio : 2.40:1
Frame rate : 23.976 (24000/1001) FPS
Color space : YUV
Chroma subsampling : 4:2:0
Bit depth : 8 bits
Scan type : Progressive
Compression mode : Lossy
Bits/(Pixel*Frame) : 0.181
Stream size : 644 MiB (86%)
Writing library : XviD 73

Audio
ID : 1
Format : MPEG Audio
Format version : Version 1
Format profile : Layer 3
Codec ID : 55
Codec ID/Hint : MP3
Duration : 1 h 44 min
Bit rate mode : Constant
Bit rate : 128 kb/s
Channel(s) : 2 channels
Sampling rate : 48.0 kHz
Frame rate : 41.667 FPS (1152 SPF)
Compression mode : Lossy
Stream size : 95.3 MiB (13%)
Alignment : Aligned on interleaves
Interleave, duration : 42 ms (1.00 video frame)
Interleave, preload duratio : 504 ms
Writing library : LAME3.99r
Encoding settings : -m s -V 4 -q 2 -lowpass 17 -b 128

Постеры

Автор

K15
Администратор
Администратор
 
Раздал: 1.16 ГБ
Скачал: 0 байт
Ратио: Seed.
Сообщения: 61
Зарегистрирован: 24 сен 2012, 21:49
Репутация: 0


Торрент

Автор: K15
Добавлен: 06 апр 2019, 14:42
Размер: 745.94 МБ
Размер: 782 170 112 байт
Сидеров: 1
Личеров: 0
Скачали: 0
Здоровье: 100%
Статус: Проверен
Изменил: K15 (06 апр 2019, 14:43)
Скорость скачивания: 0 байт/сек
Скорость раздачи: 0 байт/сек
Последний сидер: 6 дней 1 час 52 минуты 38 секунд назад
Последний личер: Нет
Приватный: Нет (DHT включён)
Полнометражные мультики Скачать торрент
Скачать торрент
[ Размер 15.99 КБ / Просмотров 38 ]


Вернуться в Полнометражные мультики

Кто сейчас на конференции

Сейчас этот форум просматривают: нет зарегистрированных пользователей и гости: 1

Привет!

Привет, меня зовут Няша, я что-то типа ангела хранителя RipFunClub'а. Так как админ меня не дописал, я еще глупенькая, и ни чего не умею и между прочим мне за это очень стыдно =( К тому же мой вид меня смущает ='(

А пока я могу только предложить зарегистрироваться или залогинеться =)