Главная » Трекеримпорт
Версия для печати
Бессовестная реклама: на этой странице пока нет =)

[Джейсон Стэтхэм] Неудержимые / The Expendables (2010) BDRip 1080p от NOLIMITS-TEAM

Сообщение

[Джейсон Стэтхэм] Неудержимые / The Expendables (2010) BDRip 1080p от NOLIMITS-TEAM

Сообщение FireCool » 20 ноя 2011, 16:09

[Для просмотра изображения необходимо включить JavaScript]


Название: Неудержимые
Оригинальное название: The Expendables

Год выхода: 2010
Жанр: Боевик, триллер, приключения
Режиссер: Сильвестр Сталлоне
В ролях: Сильвестр Сталлоне, Арнольд Шварценеггер, Брюс Уиллис, Микки Рурк, Джейсон Стэтхэм, Джет Ли, Дольф Лундгрен, Эрик Робертс, Рэнди Кутюр, Стив Остин, Дэвид Зайас, Жизель Итье, Харизма Карпентер, Гарри Дэниелс, Тэрри Крю, Хэнк Амос

«Choose your weapon.»

[Для просмотра изображения необходимо включить JavaScript] [Для просмотра изображения необходимо включить JavaScript]
Сюжет фильма:
Отряд профессиональных наёмников и отчаянных парней во главе с Барни Россом получает непростое задание — любой ценой найти и уничтожить кровавого тирана-диктатора, нагнетающего страх на мирное население и сеющего хаос в южноамериканской стране. Отправляясь на выполнение нелёгкой миссии, закалённые огнём и водой, прошедшие не одну войну, люди Росса попадают в самое пекло. Отныне им придётся выживать: сплотиться и достигнуть цели, либо отчаяться и погибнуть. И всё же эти храбрые, поистине невозмутимые ребята готовы реализовать даже не реализуемое. Но не всё так просто, как кажется на первый взгляд…

Продолжительность: 01:43:26

Перевод: Профессиональный (Полное дублирование) Лицензия
Выпущено:США | [Для просмотра изображения необходимо включить JavaScript]

[Для просмотра изображения необходимо включить JavaScript]

Качество: BDRip (1080p)
Видео:1920x816, 5 645 Кбит/сек, 23,976 кадр/сек, AVC, x264, 2,35:1, 0.147 Бит/(Пиксели*Кадры)
Аудио:AC-3, 384 Кбит/сек, 6 канала(ов), 48,0 КГц
Размер: 4.35 GB

[Для просмотра изображения необходимо включить JavaScript]

[Для просмотра изображения необходимо включить JavaScript] [Для просмотра изображения необходимо включить JavaScript]

Релиз Группа | Автор Рипа: [Для просмотра изображения необходимо включить JavaScript] [Для просмотра изображения необходимо включить JavaScript]

[Для просмотра изображения необходимо включить JavaScript]

Бюджет Фильма:$82 000 000
Кассовые сборы:$274 468 524

[Для просмотра изображения необходимо включить JavaScript]
Уэсли Снайпсу предложили роль Хэла, но ему пришлось отказаться, из-за его налоговых проблем ему не разрешили уехать из США без одобрения суда.

50 Cent был заменён актёром Терри Крюсом.

Сталлоне предлагал роль Курту Расселу, но тот отказался.

Сандре Баллок предлагали роль Агента Ликсон.

Бену Кингсли предлагали роль Монро.

Скотту Эдкинсу предлагали роль Дена Пейна.

Форест Уитакер не смог сняться в фильме в связи с занятостью.

Съемки начались в феврале 2009 в Коста Рике и Луизиане.

Сталлоне получил травму шеи во время работы над сценой драки со «звездой» реслинга Стивом Остином.

Все сцены с участием Бриттани Мерфи были удалены из фильма по просьбе ее родственников.

Съёмки фильма длились 89 дней.
General

Format: Matroska
File size: 4.35 GiB
Duration: 1h 43mn
Overall bit rate: 6 025 Kbps
Movie name: Rip by victordan 95
Encoded date: UTC 2011-07-20 05:47:37
Writing application: mkvmerge v4.6.0 ('Still Crazy After All These Years') built on Mar 10 2011 02:50:32
Writing library: libebml v1.2.0 + libmatroska v1.1.0

Video
ID: 1
Format: AVC
Format/Info: Advanced Video Codec
Format profile: High@L4.1
Format settings, CABAC: Yes
Format settings, ReFrames: 4 frames
Muxing mode: Container profile=Unknown@4.1
Codec ID: V_MPEG4/ISO/AVC
Duration: 1h 43mn
Bit rate: 5 521 Kbps
Nominal bit rate: 5 645 Kbps
Width: 1 920 pixels
Height: 816 pixels
Display aspect ratio: 2.35:1
Original display aspect ratio: 2.35:1
Frame rate: 23.976 fps
Resolution: 8 bits
Colorimetry: 4:2:0
Scan type: Progressive
Bits/(Pixel*Frame): 0.147
Stream size: 3.99 GiB (92%)
Writing library: x264 core 115 r2008 4c552d8
Encoding settings: cabac=1 / ref=4 / deblock=1:0:0 / analyse=0x3:0x113 / me=umh / subme=8 / psy=1 / psy_rd=1.00:0.00 / mixed_ref=1 / me_range=16 / chroma_me=1 / trellis=1 / 8x8dct=1 / cqm=0 / deadzone=21,11 / fast_pskip=1 / chroma_qp_offset=-2 / threads=3 / sliced_threads=0 / slices=4 / nr=0 / decimate=1 / interlaced=0 / bluray_compat=1 / constrained_intra=0 / bframes=3 / b_pyramid=0 / b_adapt=1 / b_bias=0 / direct=3 / weightb=1 / open_gop=0 / weightp=1 / keyint=24 / keyint_min=1 / scenecut=40 / intra_refresh=0 / rc_lookahead=24 / rc=2pass / mbtree=1 / bitrate=5645 / ratetol=1.0 / qcomp=0.60 / qpmin=0 / qpmax=69 / qpstep=4 / cplxblur=20.0 / qblur=0.5 / vbv_maxrate=15000 / vbv_bufsize=15000 / nal_hrd=vbr / ip_ratio=1.10 / aq=1:1.00

Audio
ID: 2
Format: AC-3
Format/Info: Audio Coding 3
Codec ID: A_AC3
Duration: 1h 43mn
Bit rate mode: Constant
Bit rate: 384 Kbps
Channel(s): 6 channels
Channel positions: Front: L C R, Surround: L R, LFE
Sampling rate: 48.0 KHz
Stream size: 284 MiB (6%)





[Для просмотра изображения необходимо включить JavaScript][/center]

Постеры

Автор

Аватара пользователя
FireCool
Младший админ
Младший админ
 
Раздал: 4.58 ТБ
Скачал: 394.82 ГБ
Ратио: 11.877
Сообщения: 1299
Зарегистрирован: 03 май 2009, 07:58
Репутация: 48
Откуда: Красноярск


Торрент

Автор: FireCool
Добавлен: 20 ноя 2011, 16:09
Размер: 4.35 ГБ
Размер: 4 674 953 827 байт
Сидеров: 43
Личеров: 5
Скачали: 1
Здоровье: 100%
Скорость скачивания: 0 байт/сек
Скорость раздачи: 0 байт/сек
Последний сидер: 30 дней 5 часов 18 минут 4 секунды назад
Последний личер: 30 дней 5 часов 18 минут 4 секунды назад
Приватный: Нет (DHT включён)
Скачать торрент
Скачать торрент
[ Размер 11.38 КБ / Просмотров 80 ]


Вернуться в импорт

Кто сейчас на конференции

Сейчас этот форум просматривают: Google [Bot] и гости: 0

Привет!

Привет, меня зовут Няша, я что-то типа ангела хранителя RipFunClub'а. Так как админ меня не дописал, я еще глупенькая, и ни чего не умею и между прочим мне за это очень стыдно =( К тому же мой вид меня смущает ='(

А пока я могу только предложить зарегистрироваться или залогинеться =)