Главная » Трекеримпорт
Версия для печати
Бессовестная реклама: на этой странице пока нет =)

[Джейсон Стэтхэм]Без компромиссов / Blitz (Эллиотт Лестер) [2011, триллер, криминал, HDRip-AVC] DUB

Сообщение

[Джейсон Стэтхэм]Без компромиссов / Blitz (Эллиотт Лестер) [2011, триллер, криминал, HDRip-AVC] DUB

Сообщение FireCool » 20 ноя 2011, 16:24

Без компромиссов / Blitz

Перевод: [font=Georgia]Профессиональный (полное дублирование)[/font], cубтитры:[font=Georgia]английские[/font]
Формат: [font=Georgia]HDRip-AVC, MKV, H.264, AC3[/font]
Страна: [font=Georgia]Великобритания[/font]
Режиссер: [font=Georgia]Эллиотт Лестер[/font]
Жанр: [font=Georgia]триллер, криминал[/font]
Продолжительность: [font=Georgia]01:37:00[/font]
Год выпуска: [font=Georgia]2011[/font]

В ролях: [font=Georgia]Джейсон Стэтхэм, Пэдди Консидайн, Эйден Гиллен, Зэйв Эштон, Дэвид Моррисси, Ричард Ридделл, Дес Баррон, Джон Бертон, Тая Де Ла Круз, Набил Елухаби.[/font]

Описание: Семь или восемь? Не в граммах, а в полицейских!.. Именно этим вопросом задается лондонский маньяк, решивший прославиться. Выбрав себе для первых полос таблоидов звучный псевдоним Блиц и вооружившись молотком, Барри Вайс выходит на улицы. И теперь главному герою придется спасать свою шкуру и пытаться остановить сумасшедшего убийцу…

[Для просмотра изображения необходимо включить JavaScript][Для просмотра изображения необходимо включить JavaScript][Для просмотра изображения необходимо включить JavaScript][/field]

Видео: [font=Georgia]1036 x 440 (2.35:1), 24,000 fps, AVC, х264, High@L4.1,~ 2 452 kbps 0.224 bit/pixel[/font]

Aудио #1: [font=Georgia]Русский: 48 kHz, AC3 Dolby Digital, 3/2 (L,C,R,l,r) + LFE ch, ~384.00 kbps avg Профессиональный (полное дублирование)[/font]
Aудио #2: Английский: 48 kHz, AC3 Dolby Digital, 3/2 (L,C,R,l,r) + LFE ch, ~384.00 kbps avg [Оригинал]

Релиз группа: [Для просмотра изображения необходимо включить JavaScript]

General
Unique ID: 171975859397904073900896392076592542329 (0x81615881EEC3A72C8BD74E3C2FF5F279)
Complete name: E:\Загрузки\Bez.Kompromissov.2011.DUAL.BDRip-AVC.AC3.-HQ-ViDEO.mkv
Format: Matroska
File size: 2.18 GiB
Duration: 1h 37mn
Overall bit rate: 3 220 Kbps
Movie name: Bez Kompromissov / 2011 / Release by Vaippp / HQ-ViDEO
Encoded date: UTC 2011-08-11 13:37:16
Writing application: mkvmerge v4.9.1 ('Ich will') сборка от Jul 11 2011 23:53:15
Writing library: libebml v1.2.1 + libmatroska v1.1.1

Video
ID: 1
Format: AVC
Format/Info: Advanced Video Codec
Format profile: High@L4.1
Format settings, CABAC: Yes
Format settings, ReFrames: 7 frames
Codec ID: V_MPEG4/ISO/AVC
Duration: 1h 37mn
Bit rate: 2 452 Kbps
Width: 1 036 pixels
Height: 440 pixels
Display aspect ratio: 2.35:1
Frame rate: 24.000 fps
Color space: YUV
Chroma subsampling: 4:2:0
Bit depth: 8 bits
Scan type: Progressive
Bits/(Pixel*Frame): 0.224
Stream size: 1.62 GiB (74%)
Title: BDRip 11/08/2011
Writing library: x264 core 116 r2037 f8ebd4a
Encoding settings: cabac=1 / ref=7 / deblock=1:-2:-1 / analyse=0x3:0x113 / me=umh / subme=10 / psy=1 / psy_rd=1.10:0.10 / mixed_ref=1 / me_range=32 / chroma_me=1 / trellis=2 / 8x8dct=1 / cqm=0 / deadzone=21,11 / fast_pskip=0 / chroma_qp_offset=-3 / threads=12 / sliced_threads=0 / nr=0 / decimate=0 / interlaced=0 / bluray_compat=0 / constrained_intra=0 / bframes=9 / b_pyramid=2 / b_adapt=2 / b_bias=0 / direct=3 / weightb=1 / open_gop=0 / weightp=2 / keyint=250 / keyint_min=23 / scenecut=40 / intra_refresh=0 / rc_lookahead=60 / rc=2pass / mbtree=1 / bitrate=2452 / ratetol=1.0 / qcomp=0.65 / qpmin=1 / qpmax=63 / qpstep=4 / cplxblur=20.0 / qblur=0.5 / vbv_maxrate=50000 / vbv_bufsize=62500 / nal_hrd=none / ip_ratio=1.40 / aq=2:0.90 / zones=131837,139703,q=35
Language: English

Audio #1
ID: 2
Format: AC-3
Format/Info: Audio Coding 3
Mode extension: CM (complete main)
Codec ID: A_AC3
Duration: 1h 37mn
Bit rate mode: Constant
Bit rate: 384 Kbps
Channel(s): 6 channels
Channel positions: Front: L C R, Side: L R, LFE
Sampling rate: 48.0 KHz
Bit depth: 16 bits
Compression mode: Lossy
Stream size: 266 MiB (12%)
Title: DUB
Language: Russian

Audio #2
ID: 3
Format: AC-3
Format/Info: Audio Coding 3
Mode extension: CM (complete main)
Codec ID: A_AC3
Duration: 1h 37mn
Bit rate mode: Constant
Bit rate: 384 Kbps
Channel(s): 6 channels
Channel positions: Front: L C R, Side: L R, LFE
Sampling rate: 48.0 KHz
Bit depth: 16 bits
Compression mode: Lossy
Stream size: 266 MiB (12%)
Title: Original
Language: English

Text
ID: 4
Format: UTF-8
Codec ID: S_TEXT/UTF8
Codec ID/Info: UTF-8 Plain Text
Language: English

Menu
00:00:00.000: en:00:00:00.000
00:06:38.500: en:00:06:38.500
00:15:10.417: en:00:15:10.417
00:23:06.333: en:00:23:06.333
00:29:14.292: en:00:29:14.292
00:38:36.417: en:00:38:36.417
00:45:27.958: en:00:45:27.958
00:52:15.667: en:00:52:15.667
01:00:46.583: en:01:00:46.583
01:08:06.875: en:01:08:06.875
01:16:12.542: en:01:16:12.542
01:22:30.958: en:01:22:30.958

Постеры

Автор

Аватара пользователя
FireCool
Младший админ
Младший админ
 
Раздал: 4.58 ТБ
Скачал: 394.82 ГБ
Ратио: 11.877
Сообщения: 1299
Зарегистрирован: 03 май 2009, 07:58
Репутация: 48
Откуда: Красноярск


Торрент

Автор: FireCool
Добавлен: 20 ноя 2011, 16:24
Размер: 2.18 ГБ
Размер: 2 342 795 759 байт
Сидеров: 114
Личеров: 4
Скачали: 1
Здоровье: 100%
Скорость скачивания: 0 байт/сек
Скорость раздачи: 0 байт/сек
Последний сидер: 1 месяц 2 дня 5 часов 50 минут 3 секунды назад
Последний личер: 1 месяц 2 дня 5 часов 50 минут 3 секунды назад
Приватный: Нет (DHT включён)
Скачать торрент
Скачать торрент
[ Размер 11.78 КБ / Просмотров 66 ]


Вернуться в импорт

Кто сейчас на конференции

Сейчас этот форум просматривают: нет зарегистрированных пользователей и гости: 0

Привет!

Привет, меня зовут Няша, я что-то типа ангела хранителя RipFunClub'а. Так как админ меня не дописал, я еще глупенькая, и ни чего не умею и между прочим мне за это очень стыдно =( К тому же мой вид меня смущает ='(

А пока я могу только предложить зарегистрироваться или залогинеться =)