Главная » ТрекерМузыкаРок музыка / Rock MusicЗарубежный РокAOR, Melodic, Classic & Hard Rock (lossless)
Версия для печати
Бессовестная реклама: на этой странице пока нет =)

Scorpions - Love At First Sting [2012 Audio Fidelity HDCD AFZ 143] - 1984, FLAC (image+.cue), lossless

Сообщение

Scorpions - Love At First Sting [2012 Audio Fidelity HDCD AFZ 143] - 1984, FLAC (image+.cue), lossless

Сообщение GhOsT » 28 сен 2012, 11:20

Scorpions - Love At First Sting

Жанр: Hard Rock
Годы записи материала: 1984
Год выпуска диска: 2012
Страна: Germany
Аудиокодек: FLAC (*.flac)
Тип рипа: image+.cue
Битрейт аудио: lossless
Источник (релизер): flac jacket/ AvaxHome
Наличие сканов в содержимом раздачи: да

Треклист:
01. Bad Boys Running Wild
02. Rock You Like A Hurricane
03. I'm Leaving You
04. Coming Home
05. The Same Thrill
06. Big City Nights
07. As Soon As The Good Times Roll
08. Crossfire
09. Still Loving You
Home Page:
foobar2000 1.1.7 / Dynamic Range Meter 1.1.0
Код:
Код: Выделить всё
foobar2000 1.1.7 / Dynamic Range Meter 1.1.0
log date: 2012-09-18 20:28:56
--------------------------------------------------------------------------------
Analyzed: Scorpions / Love At First Sting [AFZ 143]
--------------------------------------------------------------------------------
DR         Peak         RMS     Duration Track
--------------------------------------------------------------------------------
DR14       0.00 dB   -15.14 dB      3:56 01-Bad Boys Running Wild
DR14       0.00 dB   -15.60 dB      4:12 02-Rock You Like A Hurricane
DR13       0.00 dB   -14.92 dB      4:18 03-I'm Leaving You
DR12      -0.59 dB   -15.28 dB      4:59 04-Coming Home
DR12       0.00 dB   -13.43 dB      3:32 05-The Same Thrill
DR12      -0.09 dB   -14.77 dB      4:09 06-Big City Nights
DR13       0.00 dB   -15.25 dB      5:03 07-As Soon As The Good Times Roll
DR12      -0.62 dB   -15.70 dB      4:37 08-Crossfire
DR11       0.00 dB   -14.15 dB      6:28 09-Still Loving You
--------------------------------------------------------------------------------
Number of tracks:  9
Official DR value: DR13
Samplerate:        44100 Hz
Channels:          2
Bits per sample:   16
Bitrate:           892 kbps
Codec:             FLAC
================================================================================

Лог создания рипа
Код: Выделить всё
Exact Audio Copy V1.0 beta 2 from 29. April 2011
EAC extraction logfile from 18. September 2012, 19:44
Scorpions / Love At First Sting [AFZ 143]
Used drive: HL-DT-STDVDRAM GH60NAdapter: 0ID: 1
Read mode: Secure
Utilize accurate stream : Yes
Defeat audio cache: Yes
Make use of C2 pointers : No
Read offset correction: 667
Overread into Lead-In and Lead-Out: No
Fill up missing offset samples with silence : Yes
Delete leading and trailing silent blocks: No
Null samples used in CRC calculations: Yes
Used interface: Native Win32 interface for Win NT & 2000
Used output format: User Defined Encoder
Selected bitrate: 1024 kBit/s
Quality: High
Add ID3 tag: No
Command line compressor: C:\Program Files (x86)\Exact Audio Copy\Flac\flac.exe
Additional command line options : -V -8 -T "artist=%albumartist%" -T "title=%title%" -T "album=%albumtitle%" -T "date=%year%" -T "genre=%genre%" -T "tracknumber=%tracknr%" %source%
TOC of the extracted CD
Track |Start|Length| Start sector | End sector
---------------------------------------------------------
1|0:00.00 |3:56.23 |0|17722
2|3:56.23 |4:12.37 |17723|36659
3|8:08.60 |4:17.59 |36660|55993
4| 12:26.44 |4:59.35 |55994|78453
5| 17:26.04 |3:31.59 |78454|94337
6| 20:57.63 |4:09.23 |94338|113035
7| 25:07.11 |5:02.65 |113036|135750
8| 30:10.01 |4:36.42 |135751|156492
9| 34:46.43 |6:27.66 |156493|185583
Range status and errors
Selected range
Filename C:\EAC\New folder (2)\Scorpions - Love At First Sting [AFZ 143].wav
Peak level 100.0 %
Extraction speed 1.6 X
Range quality 100.0 %
Test CRC AC3EF3AB
Copy CRC AC3EF3AB
Copy OK
No errors occurred
AccurateRip summary
Track1not present in database
Track2not present in database
Track3not present in database
Track4not present in database
Track5not present in database
Track6not present in database
Track7not present in database
Track8not present in database
Track9not present in database
None of the tracks are present in the AccurateRip database
End of status report
==== Log checksum 3ED58578BD795F5CC6F771181540F1DE3CDCB3CD5B2DDF9F7AAAAAD56441ACD6 ====
Содержание индексной карты (.CUE)
Код: Выделить всё
REM GENRE "Hard Rock"
REM DATE 1984
REM DISCID 7A09AA09
REM COMMENT "ExactAudioCopy v1.0b2"
PERFORMER "Scorpions"
TITLE "Love At First Sting [AFZ 143]"
FILE "Scorpions - Love At First Sting [AFZ 143].flac" WAVE
TRACK 01 AUDIO
TITLE "Bad Boys Running Wild"
PERFORMER "Scorpions"
INDEX 01 00:00:00
TRACK 02 AUDIO
TITLE "Rock You Like A Hurricane"
PERFORMER "Scorpions"
INDEX 01 03:56:23
TRACK 03 AUDIO
TITLE "I'm Leaving You"
PERFORMER "Scorpions"
INDEX 01 08:08:60
TRACK 04 AUDIO
TITLE "Coming Home"
PERFORMER "Scorpions"
INDEX 01 12:26:44
TRACK 05 AUDIO
TITLE "The Same Thrill"
PERFORMER "Scorpions"
INDEX 01 17:26:04
TRACK 06 AUDIO
TITLE "Big City Nights"
PERFORMER "Scorpions"
INDEX 01 20:57:63
TRACK 07 AUDIO
TITLE "As Soon As The Good Times Roll"
PERFORMER "Scorpions"
INDEX 01 25:07:11
TRACK 08 AUDIO
TITLE "Crossfire"
PERFORMER "Scorpions"
INDEX 01 30:10:01
TRACK 09 AUDIO
TITLE "Still Loving You"
PERFORMER "Scorpions"
INDEX 01 34:46:43

Постеры

Автор

Аватара пользователя
GhOsT
R.G.RipFunMusic
R.G.RipFunMusic
 
Раздал: 0 байт
Скачал: 0 байт
Ратио: Inf.
Сообщения: 54
Зарегистрирован: 20 мар 2012, 16:23
Репутация: 5
Откуда: С рок концерта.


Торрент

Автор: GhOsT
Добавлен: 28 сен 2012, 11:20
Размер: 385 МБ
Размер: 403 697 320 байт
Сидеров: 16
Личеров: 51
Скачали: 0
Здоровье: 31%
Статус: Проверен
Изменил: RockMusic (28 сен 2012, 11:21)
Скорость скачивания: 0 байт/сек
Скорость раздачи: 0 байт/сек
Последний сидер: 1 день 1 час 9 минут 49 секунд назад
Последний личер: 1 день 1 час 9 минут 49 секунд назад
Приватный: Нет (DHT включён)
AOR, Melodic, Classic & Hard Rock (lossless) Скачать торрент
Скачать торрент
[ Размер 16.47 КБ / Просмотров 57 ]


Re: Scorpions - Love At First Sting [2012 Audio Fidelity HDCD AFZ 143] - 1984, FLAC (image+.cue), lossless

Сообщение TheBoyka24 » 09 май 2019, 14:29

Раздайте.
Аватара пользователя
TheBoyka24
 
Раздал: 0 байт
Скачал: 0 байт
Ратио: Inf.
Сообщения: 1
Зарегистрирован: 09 май 2019, 14:27
Репутация: 0


Вернуться в AOR, Melodic, Classic & Hard Rock (lossless)

Кто сейчас на конференции

Сейчас этот форум просматривают: нет зарегистрированных пользователей и гости: 0

Привет!

Привет, меня зовут Няша, я что-то типа ангела хранителя RipFunClub'а. Так как админ меня не дописал, я еще глупенькая, и ни чего не умею и между прочим мне за это очень стыдно =( К тому же мой вид меня смущает ='(

А пока я могу только предложить зарегистрироваться или залогинеться =)