Главная » ТрекерВидео (кино, ТВ)Художественное кинофильмы (Blu-Ray/BDRip/HD)BDRip
Версия для печати
Бессовестная реклама: на этой странице пока нет =)

Исход: Цари и боги / Exodus: Gods and Kings (2014) BDRip 720p

В даном разделе все BDRip (720, 1080)
Правила форума

Сообщение

Исход: Цари и боги / Exodus: Gods and Kings (2014) BDRip 720p

Сообщение tukat » 12 мар 2015, 08:31

Название: Исход: Цари и боги
Оригинальное название: Exodus: Gods and Kings
Год выпуска: 2014
Жанр: Драма, боевик, приключения
Выпущено: Великобритания, США, Испания, Babieka, Chernin Entertainment, Scott Free Productions
Режиссер: Ридли Скотт
В ролях: Кристиан Бэйл, Джоэл Эдгертон, Джон Туртурро, Аарон Пол, Бен Мендельсон, Мария Вальверде, Сигурни Уивер, Бен Кингсли, Хиам Аббасс, Исаак Эндрюс

О фильме: Ветхозаветная история о великом пророке Моисее и освобождении еврейского народа из египетского плена. Моисей появился на свет в те времена, когда фараон приказал убивать всех новорожденных мальчиков еврейского происхождения. Чтобы спасти его, мать положила малыша в корзину из тростника и отправила вниз по Нилу. Ребенка нашла дочь фараона, которая усыновила его и растила рядом с Рамзесом — будущим фараоном. Много лет спустя, став мужчиной, Моисей бежит из Египта, а затем возвращается туда по велению Господа, чтобы избавить свой народ от оков рабства…

Качество: BDRip (720p)
Видео: MPEG-4 AVC, 6639 Кбит/с, 1280x534
Аудио: Русский (AC3, 6 ch, 384 Кбит/с), английский (AC3, 6 ch, 1509 Кбит/с)
Размер: 9.13 ГБ
Продолжительность: 02:30:20
Перевод: Дублированный [iTunes]
Субтитры: Русские, английские
Общее
Уникальный идентификатор : 253811430078163093375977559026609794044 (0xBEF24DA7CA56E683A8E3879F26A9ABFC)
Полное имя : E:Exodus.Gods.and.Kings.2014.720p.BluRay.DTS.HDAccess.mkv
Формат : Matroska
Версия формата : Version 4 / Version 2
Размер файла : 9,13 Гбайт
Продолжительность : 2 ч. 30 м.
Общий поток : 8697 Кбит/сек
Дата кодирования : UTC 2015-03-10 04:37:58
Программа кодирования : mkvmerge v7.3.0 ('Nouages') 64bit built on Oct 22 2014 18:53:34
Библиотека кодирования : libebml v1.3.0 + libmatroska v1.4.1
_STATISTICS_WRITING_APP : mkvmerge v7.3.0 ('Nouages') 64bit built on Oct 22 2014 18:53:34
_STATISTICS_WRITING_DATE_UTC : 2015-03-10 04:37:58
_STATISTICS_TAGS : BPS DURATION NUMBER_OF_FRAMES NUMBER_OF_BYTES
DURATION : 02:29:03.983000000
NUMBER_OF_FRAMES : 1267
NUMBER_OF_BYTES : 51425
Видео
Идентификатор : 1
Формат : AVC
Формат/Информация : Advanced Video Codec
Профиль формата : High@L4.1
Параметр CABAC формата : Да
Параметр ReFrames формата : 12 кадров
Идентификатор кодека : V_MPEG4/ISO/AVC
Продолжительность : 2 ч. 30 м.
Битрейт : 6631 Кбит/сек
Ширина : 1280 пикселей
Высота : 534 пикселя
Соотношение сторон : 2,40:1
Режим частоты кадров : Постоянный
Частота кадров : 23,976 кадра/сек
Цветовое пространство : YUV
Субдискретизация насыщенности : 4:2:0
Битовая глубина : 8 бит
Тип развёртки : Прогрессивная
Бит/(Пиксели*Кадры) : 0.405
Размер потока : 6,96 Гбайт (76%)
Библиотека кодирования : x264 core 142 r2431+42 c69a006 tMod [8-bit@all X86_64]
Настройки программы : cabac=1 / ref=12 / deblock=1:-3:-3 / analyse=0x3:0x133 / me=umh / subme=10 / psy=1 / fade_compensate=0.00 / psy_rd=1.05:0.00 / mixed_ref=1 / me_range=24 / chroma_me=1 / trellis=2 / 8x8dct=1 / cqm=0 / deadzone=21,11 / fast_pskip=0 / chroma_qp_offset=-2 / threads=24 / lookahead_threads=4 / sliced_threads=0 / nr=0 / decimate=0 / interlaced=0 / bluray_compat=0 / constrained_intra=0 / fgo=0 / bframes=9 / b_pyramid=2 / b_adapt=2 / b_bias=0 / direct=3 / weightb=1 / open_gop=0 / weightp=2 / keyint=250 / keyint_min=23 / scenecut=40 / intra_refresh=0 / rc=crf / mbtree=0 / crf=15.0000 / qcomp=0.70 / qpmin=0:0:0 / qpmax=69:69:69 / qpstep=4 / ip_ratio=1.20 / pb_ratio=1.10 / aq=4:0.65 / aq-sensitivity=10.00 / aq-factor=1.00:1.00:1.00 / aq2=0 / aq3=0
Язык : English
Default : Да
Forced : Нет
_STATISTICS_WRITING_APP : mkvmerge v7.3.0 ('Nouages') 64bit built on Oct 22 2014 18:53:34
_STATISTICS_WRITING_DATE_UTC : 2015-03-10 04:37:58
_STATISTICS_TAGS : BPS DURATION NUMBER_OF_FRAMES NUMBER_OF_BYTES
DURATION : 02:30:20.178000000
NUMBER_OF_FRAMES : 216268
NUMBER_OF_BYTES : 7669014390
Аудио #1
Идентификатор : 2
Формат : AC-3
Формат/Информация : Audio Coding 3
Расширение режима : CM (complete main)
Параметр Endianness формата : Big
Идентификатор кодека : A_AC3
Продолжительность : 2 ч. 30 м.
Вид битрейта : Постоянный
Битрейт : 384 Кбит/сек
Каналы : 6 каналов
Расположение каналов : Front: L C R, Side: L R, LFE
Частота : 48,0 КГц
Битовая глубина : 16 бит
Метод сжатия : С потерями
Размер потока : 413 Мбайт (4%)
Язык : Russian
Default : Да
Forced : Нет
Аудио #2
Идентификатор : 3
Формат : DTS
Формат/Информация : Digital Theater Systems
Режим : 16
Параметр Endianness формата : Big
Идентификатор кодека : A_DTS
Продолжительность : 2 ч. 30 м.
Вид битрейта : Постоянный
Битрейт : 1509 Кбит/сек
Каналы : 6 каналов
Расположение каналов : Front: L C R, Side: L R, LFE
Частота : 48,0 КГц
Битовая глубина : 24 бит
Метод сжатия : С потерями
Размер потока : 1,58 Гбайт (17%)
Язык : English
Default : Нет
Forced : Нет
Текст #1
Идентификатор : 4
Формат : UTF-8
Идентификатор кодека : S_TEXT/UTF8
Идентификатор кодека/Информация : UTF-8 Plain Text
Язык : Russian
Default : Да
Forced : Нет
Текст #2
Идентификатор : 5
Формат : UTF-8
Идентификатор кодека : S_TEXT/UTF8
Идентификатор кодека/Информация : UTF-8 Plain Text
Язык : Russian
Default : Нет
Forced : Нет
Текст #3
Идентификатор : 6
Формат : UTF-8
Идентификатор кодека : S_TEXT/UTF8
Идентификатор кодека/Информация : UTF-8 Plain Text
Язык : Ukrainian
Default : Нет
Forced : Нет
Текст #4
Идентификатор : 7
Формат : UTF-8
Идентификатор кодека : S_TEXT/UTF8
Идентификатор кодека/Информация : UTF-8 Plain Text
Язык : English
Default : Нет
Forced : Нет
Текст #5
Идентификатор : 8
Формат : UTF-8
Идентификатор кодека : S_TEXT/UTF8
Идентификатор кодека/Информация : UTF-8 Plain Text
Заголовок : SDH
Язык : English
Default : Нет
Forced : Нет
Меню #1
00:00:00.000 : en:1
00:03:54.000 : en:2
00:06:50.000 : en:3
00:11:46.000 : en:4
00:14:27.000 : en:5
00:18:35.000 : en:6
00:22:13.000 : en:7
00:26:48.000 : en:8
00:30:28.000 : en:9
00:36:38.000 : en:10
00:40:44.000 : en:11
00:44:46.000 : en:12
00:48:43.000 : en:13
00:51:12.000 : en:14
00:54:17.000 : en:15
00:57:28.000 : en:16
01:00:26.000 : en:17
01:04:36.000 : en:18
01:06:44.000 : en:19
01:10:56.000 : en:20
01:16:48.000 : en:21
01:21:12.000 : en:22
01:24:24.000 : en:23
01:28:02.000 : en:24
01:30:47.000 : en:25
01:34:07.000 : en:26
01:37:13.000 : en:27
01:39:13.000 : en:28
01:42:33.000 : en:29
01:46:42.000 : en:30
01:48:55.000 : en:31
01:52:10.000 : en:32
01:57:21.000 : en:33
02:00:15.000 : en:34
02:05:32.000 : en:35
02:07:22.000 : en:36
02:13:29.000 : en:37
02:16:12.000 : en:38
02:19:30.000 : en:39
02:23:10.000 : en:40

Постеры

Автор

Аватара пользователя
tukat
Супераплоадеры
Супераплоадеры
 
Раздал: 999.61 МБ
Скачал: 4.91 ГБ
Ратио: 0.199
Сообщения: 2437
Зарегистрирован: 24 мар 2010, 14:33
Репутация: 28


Торрент

Автор: tukat
Добавлен: 12 мар 2015, 08:31
Размер: 9.13 ГБ
Размер: 9 806 540 758 байт
Сидеров: 354
Личеров: 62
Скачали: 0
Здоровье: 100%
Статус: Проверен
Изменил: T E K (12 мар 2015, 08:32)
Скорость скачивания: 0 байт/сек
Скорость раздачи: 0 байт/сек
Последний сидер: 15 дней 8 часов 58 минут 24 секунды назад
Последний личер: 15 дней 8 часов 58 минут 24 секунды назад
Приватный: Нет (DHT включён)
BDRip Скачать торрент
Скачать торрент
[ Размер 23.45 КБ / Просмотров 9 ]


Вернуться в BDRip

Кто сейчас на конференции

Сейчас этот форум просматривают: нет зарегистрированных пользователей и гости: 0

Привет!

Привет, меня зовут Няша, я что-то типа ангела хранителя RipFunClub'а. Так как админ меня не дописал, я еще глупенькая, и ни чего не умею и между прочим мне за это очень стыдно =( К тому же мой вид меня смущает ='(

А пока я могу только предложить зарегистрироваться или залогинеться =)