Главная » ТрекерВидео (кино, ТВ)Художественное кинофильмы (Blu-Ray/BDRip/HD)BDRip
Версия для печати
Бессовестная реклама: на этой странице пока нет =)

Исход: Цари и боги / Exodus: Gods and Kings (2014) BDRip 1080p

В даном разделе все BDRip (720, 1080)
Правила форума

Сообщение

Исход: Цари и боги / Exodus: Gods and Kings (2014) BDRip 1080p

Сообщение tiusan » 12 мар 2015, 08:32

Название: Исход: Цари и боги
Оригинальное название: Exodus: Gods and Kings
Год выпуска: 2014
Жанр: Драма, боевик, приключения
Выпущено: Великобритания, США, Испания, Babieka, Chernin Entertainment, Scott Free Productions
Режиссер: Ридли Скотт
В ролях: Кристиан Бэйл, Джоэл Эдгертон, Джон Туртурро, Аарон Пол, Бен Мендельсон, Мария Вальверде, Сигурни Уивер, Бен Кингсли, Хиам Аббасс, Исаак Эндрюс

О фильме: Ветхозаветная история о великом пророке Моисее и освобождении еврейского народа из египетского плена. Моисей появился на свет в те времена, когда фараон приказал убивать всех новорожденных мальчиков еврейского происхождения. Чтобы спасти его, мать положила малыша в корзину из тростника и отправила вниз по Нилу. Ребенка нашла дочь фараона, которая усыновила его и растила рядом с Рамзесом — будущим фараоном. Много лет спустя, став мужчиной, Моисей бежит из Египта, а затем возвращается туда по велению Господа, чтобы избавить свой народ от оков рабства…

Качество: BDRip (1080p)
Видео: MPEG-4 AVC, 8250 Кбит/с, 1920x800
Аудио: Русский (AC3, 6 ch, 384 Кбит/с), украинский (AC3, 2 ch, 192 Кбит/с), английский (DTS, 6 ch, 1510 Кбит/с), (AC3, 6 ch, 448 Кбит/с), (AC3, 2 ch, 224 Кбит/с)
Размер: 11.55 ГБ
Продолжительность: 02:30:20
Перевод: Дублированный [iTunes]
Субтитры: Русские, английские, украинские
x264 [info]: frame I:1876 Avg QP:13.91 size:232734 PSNR Mean Y:49.11 U:52.29 V:53.25 Avg:49.97 Global:49.29
x264 [info]: frame P:54206 Avg QP:17.10 size: 77769 PSNR Mean Y:46.70 U:50.92 V:51.82 Avg:47.73 Global:46.96
x264 [info]: frame B:160187 Avg QP:18.91 size: 28968 PSNR Mean Y:45.91 U:50.34 V:51.62 Avg:46.98 Global:46.16
x264 [info]: consecutive B-frames: 3.8% 4.8% 12.4% 24.8% 19.7% 25.1% 5.7% 2.2% 1.4%
Код:
Полное имя : C:!Исход_Цари.И.Боги-Exodus_Gods.And.Kings.(2014).BDRip.[1080p].mkv
Формат : Matroska
Версия формата : Version 4 / Version 2
Размер файла : 11,6 Гбайт
Продолжительность : 2 ч. 30 м.
Общий поток : 11,0 Мбит/сек
Название фильма : Исход: Цари и боги / Exodus: Gods and Kings (2014) BDRip [1080p] | nnm-club | y607ce
Дата кодирования : UTC 2015-03-10 11:58:04
Программа кодирования : mkvmerge v7.7.0 ('Six Voices') 64bit built on Feb 28 2015 23:39:33
Библиотека кодирования : libebml v1.3.1 + libmatroska v1.4.2
Attachements : cover.jpg / chapters.txt
DURATION : 02:25:32.607000000
NUMBER_OF_FRAMES : 2386
NUMBER_OF_BYTES : 110040
_STATISTICS_WRITING_APP : mkvmerge v7.7.0 ('Six Voices') 64bit built on Feb 28 2015 23:39:33
_STATISTICS_WRITING_DATE_UTC : 2015-03-10 11:58:04
_STATISTICS_TAGS : BPS DURATION NUMBER_OF_FRAMES NUMBER_OF_BYTES
Видео
Идентификатор : 1
Формат : AVC
Формат/Информация : Advanced Video Codec
Профиль формата : High@L4.1
Параметр CABAC формата : Да
Параметр ReFrames формата : 5 кадров
Идентификатор кодека : V_MPEG4/ISO/AVC
Продолжительность : 2 ч. 30 м.
Битрейт : 8250 Кбит/сек
Ширина : 1920 пикселей
Высота : 800 пикселей
Соотношение сторон : 2,40:1
Режим частоты кадров : Постоянный
Частота кадров : 23,976 кадра/сек
Цветовое пространство : YUV
Субдискретизация насыщенности : 4:2:0
Битовая глубина : 8 бит
Тип развёртки : Прогрессивная
Бит/(Пиксели*Кадры) : 0.224
Размер потока : 8,43 Гбайт (73%)
Заголовок : Исход: Цари и боги / Exodus: Gods and Kings (2014) BDRip [1080p]
Библиотека кодирования : x264 core 130 r2273 b3065e6
Настройки программы : cabac=1 / ref=5 / deblock=1:-2:-2 / analyse=0x3:0x133 / me=umh / subme=11 / psy=1 / psy_rd=1.00:0.00 / mixed_ref=1 / me_range=48 / chroma_me=1 / trellis=2 / 8x8dct=1 / cqm=0 / deadzone=21,11 / fast_pskip=1 / chroma_qp_offset=-2 / threads=12 / lookahead_threads=2 / sliced_threads=0 / nr=0 / decimate=0 / interlaced=0 / bluray_compat=0 / constrained_intra=0 / bframes=8 / b_pyramid=2 / b_adapt=2 / b_bias=0 / direct=3 / weightb=1 / open_gop=0 / weightp=2 / keyint=250 / keyint_min=23 / scenecut=40 / intra_refresh=0 / rc=2pass / mbtree=0 / bitrate=8250 / ratetol=1.0 / qcomp=0.60 / qpmin=0 / qpmax=69 / qpstep=4 / cplxblur=20.0 / qblur=0.5 / ip_ratio=1.40 / pb_ratio=1.30 / aq=2:1.00
Язык : English
Default : Да
Forced : Да
DURATION : 02:30:20.220000000
NUMBER_OF_FRAMES : 216269
NUMBER_OF_BYTES : 9292502276
_STATISTICS_WRITING_APP : mkvmerge v7.7.0 ('Six Voices') 64bit built on Feb 28 2015 23:39:33
_STATISTICS_WRITING_DATE_UTC : 2015-03-10 11:58:04
_STATISTICS_TAGS : BPS DURATION NUMBER_OF_FRAMES NUMBER_OF_BYTES
Аудио #1
Идентификатор : 2
Формат : AC-3
Формат/Информация : Audio Coding 3
Расширение режима : CM (complete main)
Параметр Endianness формата : Big
Идентификатор кодека : A_AC3
Продолжительность : 2 ч. 30 м.
Вид битрейта : Постоянный
Битрейт : 384 Кбит/сек
Каналы : 6 каналов
Расположение каналов : Front: L C R, Side: L R, LFE
Частота : 48,0 КГц
Битовая глубина : 16 бит
Метод сжатия : С потерями
Размер потока : 413 Мбайт (3%)
Заголовок : AC3 5.1, 384 kbps - Dub | iTunes
Язык : Russian
Default : Да
Forced : Да
Аудио #2
Идентификатор : 3
Формат : AC-3
Формат/Информация : Audio Coding 3
Расширение режима : CM (complete main)
Параметр Endianness формата : Big
Идентификатор кодека : A_AC3
Продолжительность : 2 ч. 30 м.
Вид битрейта : Постоянный
Битрейт : 192 Кбит/сек
Каналы : 2 канала
Расположение каналов : Front: L R
Частота : 48,0 КГц
Битовая глубина : 16 бит
Метод сжатия : С потерями
Размер потока : 206 Мбайт (2%)
Заголовок : AC3 2.0, 192 kbps - Dub | iTunes
Язык : Ukrainian
Default : Нет
Forced : Нет
Аудио #3
Идентификатор : 4
Формат : DTS
Формат/Информация : Digital Theater Systems
Режим : 16
Параметр Endianness формата : Big
Идентификатор кодека : A_DTS
Продолжительность : 2 ч. 30 м.
Вид битрейта : Постоянный
Битрейт : 1509 Кбит/сек
Каналы : 6 каналов
Расположение каналов : Front: L C R, Side: L R, LFE
Частота : 48,0 КГц
Битовая глубина : 24 бит
Метод сжатия : С потерями
Размер потока : 1,58 Гбайт (14%)
Заголовок : DTS 5.1, 1509 kbps - Original
Язык : English
Default : Нет
Forced : Нет
Аудио #4
Идентификатор : 5
Формат : AC-3
Формат/Информация : Audio Coding 3
Расширение режима : CM (complete main)
Параметр Endianness формата : Big
Идентификатор кодека : A_AC3
Продолжительность : 2 ч. 30 м.
Вид битрейта : Постоянный
Битрейт : 448 Кбит/сек
Каналы : 6 каналов
Расположение каналов : Front: L C R, Side: L R, LFE
Частота : 48,0 КГц
Битовая глубина : 16 бит
Метод сжатия : С потерями
Размер потока : 482 Мбайт (4%)
Заголовок : AC3 5.1, 448 kbps - Deive
Язык : English
Default : Нет
Forced : Нет
Аудио #5
Идентификатор : 6
Формат : AC-3
Формат/Информация : Audio Coding 3
Расширение режима : CM (complete main)
Параметр Endianness формата : Big
Идентификатор кодека : A_AC3
Продолжительность : 2 ч. 30 м.
Вид битрейта : Постоянный
Битрейт : 224 Кбит/сек
Каналы : 2 канала
Расположение каналов : Front: L R
Частота : 48,0 КГц
Битовая глубина : 16 бит
Метод сжатия : С потерями
Размер потока : 241 Мбайт (2%)
Заголовок : AC3 2.0, 224 kbps - Commentary
Язык : English
Default : Нет
Forced : Нет
Текст #1
Идентификатор : 7
Формат : UTF-8
Идентификатор кодека : S_TEXT/UTF8
Идентификатор кодека/Информация : UTF-8 Plain Text
Заголовок : Forced
Язык : Russian
Default : Да
Forced : Да
Текст #2
Идентификатор : 8
Формат : UTF-8
Идентификатор кодека : S_TEXT/UTF8
Идентификатор кодека/Информация : UTF-8 Plain Text
Заголовок : Full
Язык : Russian
Default : Нет
Forced : Нет
Текст #3
Идентификатор : 9
Формат : UTF-8
Идентификатор кодека : S_TEXT/UTF8
Идентификатор кодека/Информация : UTF-8 Plain Text
Заголовок : Full
Язык : Ukrainian
Default : Нет
Forced : Нет
Текст #4
Идентификатор : 10
Формат : UTF-8
Идентификатор кодека : S_TEXT/UTF8
Идентификатор кодека/Информация : UTF-8 Plain Text
Заголовок : Full
Язык : English
Default : Нет
Forced : Нет
Текст #5
Идентификатор : 11
Формат : UTF-8
Идентификатор кодека : S_TEXT/UTF8
Идентификатор кодека/Информация : UTF-8 Plain Text
Заголовок : SDH
Язык : English
Default : Нет
Forced : Нет
Текст #6
Идентификатор : 12
Формат : UTF-8
Идентификатор кодека : S_TEXT/UTF8
Идентификатор кодека/Информация : UTF-8 Plain Text
Заголовок : Commentary
Язык : English
Default : Нет
Forced : Нет
Меню
00:00:00.000 : en:00:00:00.000
00:03:55.401 : en:00:03:55.401
00:06:51.994 : en:00:06:51.994
00:11:47.706 : en:00:11:47.706
00:14:29.451 : en:00:14:29.451
00:18:37.657 : en:00:18:37.657
00:22:15.834 : en:00:22:15.834
00:26:51.151 : en:00:26:51.151
00:30:31.287 : en:00:30:31.287
00:36:41.364 : en:00:36:41.364
00:40:48.320 : en:00:40:48.320
00:44:49.936 : en:00:44:49.936
00:48:47.798 : en:00:48:47.798
00:51:16.447 : en:00:51:16.447
00:54:22.217 : en:00:54:22.217
00:57:32.657 : en:00:57:32.657
01:00:31.168 : en:01:00:31.168
01:04:41.543 : en:01:04:41.543
01:06:49.045 : en:01:06:49.045
01:11:01.881 : en:01:11:01.881
01:16:53.692 : en:01:16:53.692
01:21:18.038 : en:01:21:18.038
01:24:30.355 : en:01:24:30.355
01:28:08.533 : en:01:28:08.533
01:30:54.157 : en:01:30:54.157
01:34:14.564 : en:01:34:14.564
01:37:20.542 : en:01:37:20.542
01:39:20.203 : en:01:39:20.203
01:42:40.319 : en:01:42:40.319
01:46:50.069 : en:01:46:50.069
01:49:02.661 : en:01:49:02.661
01:52:18.314 : en:01:52:18.314
01:57:29.876 : en:01:57:29.876
02:00:23.841 : en:02:00:23.841
02:05:41.324 : en:02:05:41.324
02:07:31.268 : en:02:07:31.268
02:13:38.467 : en:02:13:38.467
02:16:21.881 : en:02:16:21.881
02:19:39.995 : en:02:19:39.995
02:23:19.799 : en:02:23:19.799

Постеры

Автор

Аватара пользователя
tiusan
 
Раздал: 234.13 МБ
Скачал: 373.43 КБ
Ратио: 642.009
Сообщения: 958
Зарегистрирован: 05 янв 2011, 13:45
Репутация: 12


Торрент

Автор: tiusan
Добавлен: 12 мар 2015, 08:32
Размер: 11.55 ГБ
Размер: 12 405 349 117 байт
Сидеров: 565
Личеров: 145
Скачали: 2
Здоровье: 100%
Раздающих: 100%
Статус: Проверен
Изменил: T E K (12 мар 2015, 08:33)
Скорость скачивания: 0 байт/сек
Скорость раздачи: 0 байт/сек
Последний сидер: 15 дней 9 часов 14 минут 52 секунды назад
Последний личер: 15 дней 9 часов 14 минут 52 секунды назад
Приватный: Нет (DHT включён)
BDRip Скачать торрент
Скачать торрент
[ Размер 58.39 КБ / Просмотров 18 ]


Вернуться в BDRip

Кто сейчас на конференции

Сейчас этот форум просматривают: нет зарегистрированных пользователей и гости: 0

Привет!

Привет, меня зовут Няша, я что-то типа ангела хранителя RipFunClub'а. Так как админ меня не дописал, я еще глупенькая, и ни чего не умею и между прочим мне за это очень стыдно =( К тому же мой вид меня смущает ='(

А пока я могу только предложить зарегистрироваться или залогинеться =)