Главная » ТрекерВидео (кино, ТВ)Художественное кинофильмы (Blu-Ray/BDRip/HD)BDRip
Версия для печати
Бессовестная реклама: на этой странице пока нет =)

Чем дальше в лес / Into the Woods (2014) BDRip 720p

В даном разделе все BDRip (720, 1080)
Правила форума

Сообщение

Чем дальше в лес / Into the Woods (2014) BDRip 720p

Сообщение ayatosem » 14 мар 2015, 09:12

Название: Чем дальше в лес…
Оригинальное название: Into the Woods
Год выпуска: 2014
Жанр: Фэнтези, комедия, семейный, мюзикл
Выпущено: США, Walt Disney Pictures, Lucamar Productions, Marc Platt Productions
Режиссер: Роб Маршалл
В ролях: Мэрил Стрип, Эмили Блант, Джеймс Корден, Анна Кендрик, Крис Пайн, Джонни Депп, Дэниэл Хаттлстоун, Кристин Барански, Тэмми Бланчард, Люси Панч, Трэйси Уллмэн, Лилла Кроуфорд, Саймон Расселл Бил, Джоанна Райдинг

О фильме: Золушка мечтает попасть на бал, Пекарь, когда-то проклятый Ведьмой, и его Жена горюют о том, что у них нет ребенка, Джек хочет, чтобы его корова Беляночка наконец-то дала молоко, его Мать мечтает быть богатой, а Красной Шапочке очень нужен каравай хлеба — гостинец для Бабушки, которая живет в лесу… и, может быть, немного сластей для себя лично. Наконец, Ведьма, живущая по соседству с Пекарем, мечтает вернуть себе молодость и красоту, которые она утратила по несчастному стечению обстоятельств. Для этого она предлагает Пекарю в обмен на снятие проклятия помочь ей и добыть необходимые составляющие для волшебного напитка: корову, белую, как молоко, плащ, красный как кровь, прядь волос, желтых, как кукуруза, и золотые туфельки…

Качество: BDRip (720p)
Видео: MPEG4, 5295 Кбит/с, 1280x536
Аудио: Русский (АС3, 2 ch, 384 Кбит/с), английский (DTS, 6 ch, 1509 Кбит/с)
Размер: 6.39 ГБ
Продолжительность: 02:04:43
Перевод: Дублированный [чистый звук]
Субтитры: Русские, английские
Общее
Уникальный идентификатор : 203056883926003040023653062316097546114 (0x98C355543E5C3BD6B3F3A3B90D2C2782)
Полное имя : E:Into.the.Woods.2014.720p.BluRay.DTS.x264.HDAccess.mkv
Формат : Matroska
Версия формата : Version 4 / Version 2
Размер файла : 6,39 Гбайт
Продолжительность : 2 ч. 4 м.
Общий поток : 7334 Кбит/сек
Дата кодирования : UTC 2015-03-13 17:48:19
Программа кодирования : mkvmerge v7.3.0 ('Nouages') 64bit built on Oct 22 2014 18:53:34
Библиотека кодирования : libebml v1.3.0 + libmatroska v1.4.1
_STATISTICS_WRITING_APP : mkvmerge v7.3.0 ('Nouages') 64bit built on Oct 22 2014 18:53:34
_STATISTICS_WRITING_DATE_UTC : 2015-03-13 17:48:19
_STATISTICS_TAGS : BPS DURATION NUMBER_OF_FRAMES NUMBER_OF_BYTES
DURATION : 02:04:45.536000000
NUMBER_OF_FRAMES : 233923
NUMBER_OF_BYTES : 359305728
Видео
Идентификатор : 1
Формат : AVC
Формат/Информация : Advanced Video Codec
Профиль формата : High@L4.1
Параметр CABAC формата : Да
Параметр ReFrames формата : 12 кадров
Идентификатор кодека : V_MPEG4/ISO/AVC
Продолжительность : 2 ч. 4 м.
Битрейт : 5295 Кбит/сек
Ширина : 1280 пикселей
Высота : 536 пикселей
Соотношение сторон : 2,40:1
Режим частоты кадров : Постоянный
Частота кадров : 23,976 кадра/сек
Цветовое пространство : YUV
Субдискретизация насыщенности : 4:2:0
Битовая глубина : 8 бит
Тип развёртки : Прогрессивная
Бит/(Пиксели*Кадры) : 0.322
Размер потока : 4,61 Гбайт (72%)
Библиотека кодирования : x264 core 142 r2431+42 c69a006 tMod [8-bit@all X86_64]
Настройки программы : cabac=1 / ref=12 / deblock=1:-3:-3 / analyse=0x3:0x133 / me=tesa / subme=10 / psy=1 / fade_compensate=0.00 / psy_rd=1.05:0.00 / mixed_ref=1 / me_range=24 / chroma_me=1 / trellis=2 / 8x8dct=1 / cqm=0 / deadzone=21,11 / fast_pskip=0 / chroma_qp_offset=-2 / threads=24 / lookahead_threads=4 / sliced_threads=0 / nr=0 / decimate=0 / interlaced=0 / bluray_compat=0 / constrained_intra=0 / fgo=0 / bframes=9 / b_pyramid=2 / b_adapt=2 / b_bias=0 / direct=3 / weightb=1 / open_gop=0 / weightp=2 / keyint=250 / keyint_min=23 / scenecut=40 / intra_refresh=0 / rc=crf / mbtree=0 / crf=15.0000 / qcomp=0.75 / qpmin=0:0:0 / qpmax=69:69:69 / qpstep=4 / ip_ratio=1.30 / pb_ratio=1.20 / aq=4:0.70 / aq-sensitivity=10.00 / aq-factor=1.00:1.00:1.00 / aq2=0 / aq3=0
Язык : English
Default : Да
Forced : Нет
_STATISTICS_WRITING_APP : mkvmerge v7.3.0 ('Nouages') 64bit built on Oct 22 2014 18:53:34
_STATISTICS_WRITING_DATE_UTC : 2015-03-13 17:48:19
_STATISTICS_TAGS : BPS DURATION NUMBER_OF_FRAMES NUMBER_OF_BYTES
DURATION : 02:04:45.562000000
NUMBER_OF_FRAMES : 179474
NUMBER_OF_BYTES : 5087800579
Аудио #1
Идентификатор : 2
Формат : AC-3
Формат/Информация : Audio Coding 3
Расширение режима : CM (complete main)
Параметр Endianness формата : Big
Идентификатор кодека : A_AC3
Продолжительность : 2 ч. 4 м.
Вид битрейта : Постоянный
Битрейт : 384 Кбит/сек
Каналы : 2 канала
Расположение каналов : Front: L R
Частота : 48,0 КГц
Битовая глубина : 16 бит
Метод сжатия : С потерями
Размер потока : 343 Мбайт (5%)
Язык : Russian
Default : Да
Forced : Нет
Аудио #2
Идентификатор : 3
Формат : DTS
Формат/Информация : Digital Theater Systems
Режим : 16
Параметр Endianness формата : Big
Идентификатор кодека : A_DTS
Продолжительность : 2 ч. 4 м.
Вид битрейта : Постоянный
Битрейт : 1509 Кбит/сек
Каналы : 6 каналов
Расположение каналов : Front: L C R, Side: L R, LFE
Частота : 48,0 КГц
Битовая глубина : 24 бит
Метод сжатия : С потерями
Размер потока : 1,32 Гбайт (21%)
Язык : English
Default : Нет
Forced : Нет
Текст #1
Идентификатор : 4
Формат : UTF-8
Идентификатор кодека : S_TEXT/UTF8
Идентификатор кодека/Информация : UTF-8 Plain Text
Заголовок : Forc
Язык : Russian
Default : Да
Forced : Нет
Текст #2
Идентификатор : 5
Формат : UTF-8
Идентификатор кодека : S_TEXT/UTF8
Идентификатор кодека/Информация : UTF-8 Plain Text
Язык : Russian
Default : Нет
Forced : Нет
Текст #3
Идентификатор : 6
Формат : UTF-8
Идентификатор кодека : S_TEXT/UTF8
Идентификатор кодека/Информация : UTF-8 Plain Text
Язык : English
Default : Нет
Forced : Нет
Текст #4
Идентификатор : 7
Формат : UTF-8
Идентификатор кодека : S_TEXT/UTF8
Идентификатор кодека/Информация : UTF-8 Plain Text
Заголовок : SDH
Язык : English
Default : Нет
Forced : Нет
Меню
00:00:00.000 : en:00:00:00.000
00:16:24.275 : en:00:16:24.275
00:18:02.164 : en:00:18:02.164
00:21:30.998 : en:00:21:30.998
00:26:37.846 : en:00:26:37.846
00:28:28.415 : en:00:28:28.415
00:30:08.765 : en:00:30:08.765
00:32:50.969 : en:00:32:50.969
00:33:31.885 : en:00:33:31.885
00:37:18.027 : en:00:37:18.027
00:40:44.984 : en:00:40:44.984
00:42:27.128 : en:00:42:27.128
00:46:13.604 : en:00:46:13.604
00:48:53.180 : en:00:48:53.180
00:54:39.109 : en:00:54:39.109
00:57:50.926 : en:00:57:50.926
01:00:02.808 : en:01:00:02.808
01:03:33.977 : en:01:03:33.977
01:08:32.859 : en:01:08:32.859
01:10:14.335 : en:01:10:14.335
01:14:47.525 : en:01:14:47.525
01:21:45.567 : en:01:21:45.567
01:24:00.827 : en:01:24:00.827
01:29:15.267 : en:01:29:15.267
01:33:29.437 : en:01:33:29.437
01:36:32.996 : en:01:36:32.996
01:40:53.422 : en:01:40:53.422
01:43:59.150 : en:01:43:59.150
01:45:49.885 : en:01:45:49.885
01:49:38.947 : en:01:49:38.947
01:53:44.985 : en:01:53:44.985
01:57:23.828 : en:01:57:23.828

Постеры

Автор

Аватара пользователя
ayatosem
Релизер
Релизер
 
Раздал: 10.55 ГБ
Скачал: 5.8 ГБ
Ратио: 1.820
Сообщения: 2355
Зарегистрирован: 10 май 2010, 10:09
Репутация: 22


Торрент

Автор: ayatosem
Добавлен: 14 мар 2015, 09:12
Размер: 6.39 ГБ
Размер: 6 862 050 549 байт
Сидеров: 661
Личеров: 750
Скачали: 0
Здоровье: 88%
Раздающих: 100%
Статус: Проверен
Изменил: T E K (14 мар 2015, 09:13)
Скорость скачивания: 0 байт/сек
Скорость раздачи: 0 байт/сек
Последний сидер: 15 дней 9 часов 29 минут 20 секунд назад
Последний личер: 15 дней 9 часов 29 минут 20 секунд назад
Приватный: Нет (DHT включён)
BDRip Скачать торрент
Скачать торрент
[ Размер 32.53 КБ / Просмотров 7 ]


Вернуться в BDRip

Кто сейчас на конференции

Сейчас этот форум просматривают: нет зарегистрированных пользователей и гости: 0

Привет!

Привет, меня зовут Няша, я что-то типа ангела хранителя RipFunClub'а. Так как админ меня не дописал, я еще глупенькая, и ни чего не умею и между прочим мне за это очень стыдно =( К тому же мой вид меня смущает ='(

А пока я могу только предложить зарегистрироваться или залогинеться =)