Главная » ТрекерВидео (кино, ТВ)Художественное кинофильмы (Blu-Ray/BDRip/HD)BDRip
Версия для печати
Бессовестная реклама: на этой странице пока нет =)

Интерстеллар / Interstellar (2014) BDRip 1080p | IMAX Edition

В даном разделе все BDRip (720, 1080)
Правила форума

Сообщение

Интерстеллар / Interstellar (2014) BDRip 1080p | IMAX Edition

Сообщение ayatosem » 15 мар 2015, 13:35

Название: Интерстеллар
Оригинальное название: Interstellar
Год выхода: 2014
Жанр: фантастика, боевик, детектив, приключения
Режиссер: Кристофер Нолан
В ролях: Мэттью МакКонахи, Энн Хэтэуэй, Кейси Аффлек, Джессика Честейн, Тофер Грейс, Уэс Бентли, Майкл Кейн, Маккензи Фой, Джон Литгоу, Эллен Бёрстин

О фильме:
Когда засуха приводит человечество к продовольственному кризису, коллектив исследователей и учёных отправляется сквозь червоточину (которая предположительно соединяет области пространства-времени через большое расстояние) в путешествие, чтобы превзойти прежние ограничения для космических путешествий человека и переселить человечество на другую планету.

[Для просмотра изображения необходимо включить JavaScript]

Выпущено: США, Великобритания / Legendary Pictures, Lynda Obst Productions, Paramount Pictures, Warner Bros.
Продолжительность: 02:49:03
Озвучивание: Дублированное [чистый звук] Официальный

Формат: MKV
Качество: BDRip 1080p
Видео: MPEG-4 AVC/H.264, 11,5 Mbps, 1920 x 1080, 23,976 fps
Аудио: Russian: AC3, 384 kb/s (2 ch) / English: DTS, 1510 kb/s (6 ch)
Субтитры: English, German, Spanish
Дополнительно: Сохранены оригинальные чаптеры
Общее
Уникальный идентификатор : 245764428960018848450423350099227365835 (0xB8E481DE688D71FF9D44CED019DAD1CB)
Полное имя : D:FilmsInterstellar.2014.1080p.BDRip.mkv
Формат : Matroska
Версия формата : Version 2
Размер файла : 15,6 Гбайт
Продолжительность : 2 ч. 49 м.
Общий поток : 13,2 Мбит/сек
Дата кодирования : UTC 2015-03-15 06:57:36
Программа кодирования : mkvmerge v5.2.0 ('I can't explain') built on Dec 18 2011 18:12:03
Библиотека кодирования : libebml v1.2.3 + libmatroska v1.3.0

Видео
Идентификатор : 1
Формат : AVC
Формат/Информация : Advanced Video Codec
Профиль формата : High@L4.1
Параметр CABAC формата : Да
Параметр ReFrames формата : 4 кадра
Идентификатор кодека : V_MPEG4/ISO/AVC
Продолжительность : 2 ч. 49 м.
Битрейт : 11,5 Мбит/сек
Ширина : 1920 пикселей
Высота : 1080 пикселей
Соотношение сторон : 16:9
Режим частоты кадров : Постоянный
Частота кадров : 23,976 кадра/сек
Цветовое пространство : YUV
Субдискретизация насыщенности : 4:2:0
Битовая глубина : 8 бит
Тип развёртки : Прогрессивная
Бит/(Пиксели*Кадры) : 0.231
Размер потока : 13,1 Гбайт (84%)
Библиотека кодирования : x264 core 144 r2525M 40bb568
Настройки программы : cabac=1 / ref=4 / deblock=1:-2:-2 / analyse=0x3:0x113 / me=umh / subme=7 / psy=1 / psy_rd=1.00:0.15 / mixed_ref=1 / me_range=16 / chroma_me=1 / trellis=1 / 8x8dct=1 / cqm=0 / deadzone=21,11 / fast_pskip=1 / chroma_qp_offset=-3 / threads=40 / lookahead_threads=8 / sliced_threads=0 / nr=0 / decimate=1 / interlaced=0 / bluray_compat=0 / constrained_intra=0 / bframes=3 / b_pyramid=2 / b_adapt=2 / b_bias=0 / direct=3 / weightb=1 / open_gop=0 / weightp=2 / keyint=250 / keyint_min=25 / scenecut=40 / intra_refresh=0 / rc_lookahead=50 / rc=abr / mbtree=1 / bitrate=11500 / ratetol=1.0 / qcomp=0.60 / qpmin=0 / qpmax=69 / qpstep=4 / vbv_maxrate=31250 / vbv_bufsize=31250 / nal_hrd=none / filler=0 / ip_ratio=1.40 / aq=1:1.00
Язык : English
Default : Да
Forced : Нет

Аудио #1
Идентификатор : 2
Формат : AC-3
Формат/Информация : Audio Coding 3
Расширение режима : CM (complete main)
Параметр Endianness формата : Big
Идентификатор кодека : A_AC3
Продолжительность : 2 ч. 49 м.
Вид битрейта : Постоянный
Битрейт : 384 Кбит/сек
Каналы : 2 канала
Расположение каналов : Front: L R
Частота : 48,0 КГц
Битовая глубина : 16 бит
Метод сжатия : С потерями
Задержка видео : -83 мс.
Размер потока : 464 Мбайт (3%)
Заголовок : DUB, Line
Язык : Russian
Default : Да
Forced : Нет

Аудио #2
Идентификатор : 3
Формат : DTS
Формат/Информация : Digital Theater Systems
Режим : 16
Параметр Endianness формата : Big
Идентификатор кодека : A_DTS
Продолжительность : 2 ч. 49 м.
Вид битрейта : Постоянный
Битрейт : 1509 Кбит/сек
Каналы : 6 каналов
Расположение каналов : Front: L C R, Side: L R, LFE
Частота : 48,0 КГц
Битовая глубина : 24 бит
Метод сжатия : С потерями
Размер потока : 1,78 Гбайт (11%)
Язык : English
Default : Нет
Forced : Нет

Текст #1
Идентификатор : 4
Формат : UTF-8
Идентификатор кодека : S_TEXT/UTF8
Идентификатор кодека/Информация : UTF-8 Plain Text
Язык : Russian
Default : Нет
Forced : Нет

Текст #2
Идентификатор : 5
Формат : UTF-8
Идентификатор кодека : S_TEXT/UTF8
Идентификатор кодека/Информация : UTF-8 Plain Text
Язык : English
Default : Нет
Forced : Нет

Текст #3
Идентификатор : 6
Формат : UTF-8
Идентификатор кодека : S_TEXT/UTF8
Идентификатор кодека/Информация : UTF-8 Plain Text
Заголовок : SDH
Язык : English
Default : Нет
Forced : Нет

Меню
00:00:00.000 : :Chapter 01
00:09:35.283 : :Chapter 02
00:17:12.281 : :Chapter 03
00:25:00.707 : :Chapter 04
00:35:45.101 : :Chapter 05
00:42:16.825 : :Chapter 06
00:50:19.558 : :Chapter 07
00:54:47.784 : :Chapter 08
00:58:59.369 : :Chapter 09
01:06:14.971 : :Chapter 10
01:17:28.018 : :Chapter 11
01:25:31.960 : :Chapter 12
01:34:31.957 : :Chapter 13
01:46:14.659 : :Chapter 14
01:55:34.510 : :Chapter 15
02:02:14.327 : :Chapter 16
02:12:56.802 : :Chapter 17
02:20:53.778 : :Chapter 18
02:35:12.052 : :Chapter 19
02:43:59.830 : :Chapter 20

Постеры

Автор

Аватара пользователя
ayatosem
Релизер
Релизер
 
Раздал: 10.55 ГБ
Скачал: 5.8 ГБ
Ратио: 1.820
Сообщения: 2355
Зарегистрирован: 10 май 2010, 10:09
Репутация: 22


Торрент

Автор: ayatosem
Добавлен: 15 мар 2015, 13:35
Размер: 15.6 ГБ
Размер: 16 746 635 889 байт
Сидеров: 1684
Личеров: 3177
Скачали: 4
Здоровье: 53%
Раздающих: 100%
Статус: Проверен
Изменил: T E K (15 мар 2015, 13:36)
Скорость скачивания: 0 байт/сек
Скорость раздачи: 0 байт/сек
Последний сидер: 15 дней 8 часов 52 минуты 56 секунд назад
Последний личер: 15 дней 8 часов 52 минуты 56 секунд назад
Приватный: Нет (DHT включён)
BDRip Скачать торрент
Скачать торрент
[ Размер 39.55 КБ / Просмотров 29 ]


Вернуться в BDRip

Кто сейчас на конференции

Сейчас этот форум просматривают: нет зарегистрированных пользователей и гости: 0

Привет!

Привет, меня зовут Няша, я что-то типа ангела хранителя RipFunClub'а. Так как админ меня не дописал, я еще глупенькая, и ни чего не умею и между прочим мне за это очень стыдно =( К тому же мой вид меня смущает ='(

А пока я могу только предложить зарегистрироваться или залогинеться =)