Главная » ТрекерВидео (кино, ТВ)Художественное киноЗарубежное Кино(Rips)Триллер
Версия для печати
Бессовестная реклама: на этой странице пока нет =)

Королевство / The Realm / El reino (2018) BDRip | HDRezka Studio

Правила форума

Сообщение

Королевство / The Realm / El reino (2018) BDRip | HDRezka Studio

Сообщение K15 » 10 апр 2019, 10:47

Страна: Испания [Для просмотра изображения необходимо включить JavaScript] Франция [Для просмотра изображения необходимо включить JavaScript]
Производство: Atresmedia Cine, Bowfinger International Pictures, Film Stock Investment, Tornasol Films
Год выпуска: 2018
Жанр: Триллер, драма
Продолжительность: 02:11:24

Режиссер: Родриго Сорогойен
Авторы сценария: Изабель Пенья, Родриго Сорогойен
В ролях: Антонио де ла Торре, Моника Лопес, Хозе Мария Поу, Барбара Ленни, Начо Фреснеда, Ана Вахенер, Луис Саера, Франциско Рейс

Описание: Испанский политик ведёт роскошный образ жизни благодаря нелегальному бизнесу. Когда об этом становится известно общественности, он угрожает развалить и потянуть за собой всю партию. Но короли приходят и уходят, а королевство остаётся...

[Для просмотра изображения необходимо включить JavaScript] [Для просмотра изображения необходимо включить JavaScript]

Перевод: Профессиональный (многоголосый, закадровый) | HDRezka Studio
Субтитры: нет
Качество: BDRip | исходник - The.Realm.2018.REMUX
Формат: AVI
Видео кодек: XviD
Аудио кодек: АС3
Видео: 720x320 (2.25:1), 23.976 fps, XviD build 73 ~1 388 kbps avg
Аудио: 48.0 kHz, AC3 Dolby Digital, 2/0 (L,R) ch, ~192 kbps

Дата премьеры (мир): 7 сентября 2018

[Для просмотра изображения необходимо включить JavaScript] [Для просмотра изображения необходимо включить JavaScript]

Релиз от: порошков
General
Формат : AVI
Формат/Информация : Audio Video Interleave
Размер файла : 1,46 Гбайт
Продолжительность : 2 ч. 11 м.
Общий поток : 1590 Кбит/сек
Название фильма : Королевство_2018_BDRip
Программа кодирования : VirtualDubMod 1.5.10.3 | (build 2550/release) VirtualDubMod build 2550/release
Авторское право : порошков

Видео
Идентификатор : 0
Формат : MPEG-4 Visual
Профиль формата : Advanced Simple@L5
Настройки формата : BVOP1 / Custom Matrix
Параметр BVOP формата : 1
Параметр QPel формата : Нет
Параметр GMC формата : Без точки перехода
Параметр матрицы формата : Выборочная
Идентификатор кодека : XVID
Идентификатор кодека/Подсказка : XviD
Продолжительность : 2 ч. 11 м.
Битрейт : 1388 Кбит/сек
Ширина : 720 пикселей
Высота : 320 пикселей
Соотношение сторон : 2,25:1
Частота кадров : 23,976 (24000/1001) кадра/сек
Цветовое пространство : YUV
Субдискретизация насыщенности : 4:2:0
Битовая глубина : 8 бит
Тип развёртки : Прогрессивная
Метод сжатия : С потерями
Бит/(Пиксели*Кадры) : 0.251
Размер потока : 1,27 Гбайт (87%)
Библиотека кодирования : XviD 73

Аудио
Идентификатор : 1
Формат : AC-3
Формат/Информация : Audio Coding 3
Коммерческое название : Dolby Digital
Идентификатор кодека : 2000
Продолжительность : 2 ч. 11 м.
Вид битрейта : Постоянный
Битрейт : 192 Кбит/сек
Каналы : 2 канала
Channel layout : L R
Частота : 48,0 КГц
Частота кадров : 31,250 кадров/сек (1536 SPF)
Битовая глубина : 16 бит
Метод сжатия : С потерями
Размер потока : 180 Мбайт (12%)
Выравнивание : Разделение по промежуткам
Продолжительность промежутка : 42 мс. (1,00 видеокадр)
Время предзагрузки промежутка : 500 мс.
Язык : Не определен

Постеры

Автор

K15
Администратор
Администратор
 
Раздал: 1.16 ГБ
Скачал: 0 байт
Ратио: Seed.
Сообщения: 61
Зарегистрирован: 24 сен 2012, 21:49
Репутация: 0


Торрент

Автор: K15
Добавлен: 10 апр 2019, 10:46
Размер: 1.46 ГБ
Размер: 1 566 619 648 байт
Сидеров: 1
Личеров: 2
Скачали: 0
Здоровье: 50%
Статус: Проверен
Изменил: K15 (10 апр 2019, 10:47)
Скорость скачивания: 0 байт/сек
Скорость раздачи: 0 байт/сек
Последний сидер: 6 дней 23 часа 32 минуты 28 секунд назад
Последний личер: 6 дней 23 часа 32 минуты 28 секунд назад
Приватный: Нет (DHT включён)
Триллер Скачать торрент
Скачать торрент
[ Размер 16.03 КБ / Просмотров 63 ]


Вернуться в Триллер

Кто сейчас на конференции

Сейчас этот форум просматривают: нет зарегистрированных пользователей и гости: 0

Привет!

Привет, меня зовут Няша, я что-то типа ангела хранителя RipFunClub'а. Так как админ меня не дописал, я еще глупенькая, и ни чего не умею и между прочим мне за это очень стыдно =( К тому же мой вид меня смущает ='(

А пока я могу только предложить зарегистрироваться или залогинеться =)